<?xml version="1.0" standalone="no"?>
<!DOCTYPE svg PUBLIC "-//W3C//DTD SVG 1.1//EN" "http://www.w3.org/Graphics/SVG/1.1/DTD/svg11.dtd" >
<svg xmlns="http://www.w3.org/2000/svg" xmlns:xlink="http://www.w3.org/1999/xlink" version="1.1">
<metadata>
Created by FontForge 20201107 at Sun Jan 12 18:04:14 2025
 By 
Copyright (c) 2021 Alessio D'Ellena. All Rights Reserved.
</metadata>
<defs>
<font id="Dopolavoro" horiz-adv-x="2129" >
  <font-face 
    font-family="DopolavoroL"
    font-weight="400"
    font-stretch="normal"
    units-per-em="2048"
    panose-1="0 0 5 0 0 0 0 0 0 0"
    ascent="1802"
    descent="-246"
    x-height="1032"
    cap-height="1575"
    bbox="-190 -561 2494.31 2286.2"
    underline-thickness="102"
    underline-position="-204"
    unicode-range="U+0020-FFE3"
  />
<missing-glyph 
d="M1884 -324h-1638q-37 0 -56.5 20.5t-19.5 57.5v2048q0 37 19.5 57.5t56.5 20.5h1638q37 0 57.5 -20.5t20.5 -57.5v-2048q0 -37 -20.5 -57.5t-57.5 -20.5zM571 1624l494 -637l494 637h-988zM426 1393v-1229l475 614zM1229 778l477 -614v1229zM1065 569l-494 -637h988z" />
    <glyph glyph-name=".notdef" 
d="M1884 -324h-1638q-37 0 -56.5 20.5t-19.5 57.5v2048q0 37 19.5 57.5t56.5 20.5h1638q37 0 57.5 -20.5t20.5 -57.5v-2048q0 -37 -20.5 -57.5t-57.5 -20.5zM571 1624l494 -637l494 637h-988zM426 1393v-1229l475 614zM1229 778l477 -614v1229zM1065 569l-494 -637h988z" />
    <glyph glyph-name=".null" horiz-adv-x="0" 
 />
    <glyph glyph-name="nonmarkingreturn" horiz-adv-x="682" 
 />
    <glyph glyph-name="space" unicode=" " horiz-adv-x="595" 
 />
    <glyph glyph-name="space" unicode="&#xa0;" horiz-adv-x="595" 
 />
    <glyph glyph-name="exclam" unicode="!" horiz-adv-x="792" 
d="M344 358q-33 15 -46 40t-13 69q0 450 -27 668l-25 268q-2 80 44 133t120 53q71 0 117 -54.5t43 -133.5l-16 -135q-43 -345 -43 -799q0 -38 -12.5 -62t-41.5 -43q-48 -26 -100 -4zM387 1411l6 -84l10 84l-6 25q-10 0 -10 -25zM399 -90q-70 0 -119 49.5t-49 120.5
q0 72 48 120t120 48q70 0 119 -49.5t49 -118.5q0 -72 -48 -121t-120 -49zM399 66q15 0 15 14t-15 14q-14 0 -14 -14t14 -14z" />
    <glyph glyph-name="quotedbl" unicode="&#x22;" horiz-adv-x="911" 
d="M238 958l-31 5q-76 12 -64 88l68 401q20 143 137 143q56 0 95.5 -38t39.5 -93q0 -23 -16 -69l-137 -383q-22 -67 -92 -54zM500 958l-27 9q-68 21 -53 92l84 401q32 143 149 129q55 -8 88 -42t33 -87q0 -25 -16 -71l-160 -385q-27 -67 -98 -46z" />
    <glyph glyph-name="numbersign" unicode="#" horiz-adv-x="1595" 
d="M371 -76h-66q-40 0 -58.5 23t-10.5 61l77 400h-221q-76 0 -76 75v105q0 37 19.5 57.5t56.5 20.5h273l53 258h-230q-75 0 -75 75v105q0 37 19.5 57.5t55.5 20.5h281l68 323q12 70 81 70h66q40 0 59 -23t11 -61l-64 -309h369l63 323q12 70 82 70h66q39 0 57 -22.5t12 -61.5
l-61 -309h225q37 0 57.5 -20.5t20.5 -57.5v-105q0 -36 -20.5 -55.5t-57.5 -19.5h-274l-51 -258h229q37 0 57.5 -20.5t20.5 -57.5v-105q0 -36 -20.5 -55.5t-57.5 -19.5h-279l-79 -414q-12 -70 -82 -70h-66q-39 0 -57.5 22.5t-12.5 61.5l78 400h-374l-82 -414q-12 -70 -82 -70
zM639 924l-53 -258h372l52 258h-371z" />
    <glyph glyph-name="dollar" unicode="$" horiz-adv-x="1114" 
d="M592 -182h-68q-75 0 -75 57v55q-193 32 -318 168.5t-125 315.5q0 76 39 121t109 45q65 0 107 -46t42 -114q0 -48 -20 -90q-2 -6 -2 -33q0 -8 17 -33.5t44 -54.5q65 -68 201 -68q130 0 221.5 82.5t91.5 198.5q0 66 -59 131t-219 94q-315 59 -433 201q-96 116 -96 266
q0 173 111 297.5t289 153.5v28q0 37 19.5 57.5t55.5 20.5h68q37 0 57.5 -14.5t20.5 -40.5v-53q155 -34 256.5 -152t101.5 -266q0 -69 -43.5 -112.5t-112.5 -43.5q-61 0 -102.5 47t-38.5 113q0 12 2 18q5 43 6 50q-3 61 -54 101t-128 40q-105 0 -188.5 -65t-83.5 -142
q0 -67 45 -117q43 -62 276 -106q292 -58 387 -168q113 -119 113 -281q0 -206 -121.5 -357.5t-314.5 -189.5v-36q0 -37 -20.5 -57.5t-57.5 -20.5z" />
    <glyph glyph-name="percent" unicode="%" horiz-adv-x="1634" 
d="M1188 1575h98q46 0 61.5 -26t-6.5 -66l-825 -1503q-30 -56 -92 -56h-98q-46 0 -62 26t6 66l514 936q-74 -129 -193 -209.5t-245 -80.5q-127 0 -209 95.5t-82 243.5q0 143 74 278t195 218.5t251 83.5t211.5 -92t81.5 -238q0 -136 -69 -274l297 543q30 55 92 55zM346 879
q49 0 115.5 70.5t115 171.5t48.5 179q0 26 -12 45t-25 19q-50 0 -119.5 -72t-119.5 -174t-50 -180q0 -59 47 -59zM1274 842q136 0 221.5 -95t85.5 -245q0 -139 -73 -274.5t-190.5 -220.5t-238.5 -85q-139 0 -221 97.5t-82 259.5q0 105 42 208t110.5 180.5t160 126
t185.5 48.5zM1219 266q118 167 118 291q0 66 -41 66q-54 0 -119.5 -64.5t-111 -159.5t-45.5 -176q0 -38 11.5 -60t27.5 -22q69 0 160 125z" />
    <glyph glyph-name="ampersand" unicode="&#x26;" horiz-adv-x="1771" 
d="M614 -90q-252 0 -406.5 133t-154.5 350q0 165 87 276t298 210q-71 164 -71 295q0 180 124 298.5t310 118.5q161 0 263.5 -97t102.5 -249q0 -140 -88 -243t-293 -203q141 -240 304 -418q53 72 93 155.5t40 127.5q0 22 -7.5 34.5t-17.5 10.5h-115q-75 0 -75 75v66
q0 37 19.5 57.5t55.5 20.5h508q37 0 57.5 -20.5t20.5 -57.5v-66q0 -36 -20.5 -55.5t-57.5 -19.5h-82q-31 0 -50.5 -12.5t-22.5 -32.5q-56 -254 -187 -428q61 -41 109 -41q57 0 151 61q48 32 97 29q52 -6 69 -23q17 -20 17 -72q0 -56 -41 -92q-183 -174 -334 -174
q-150 0 -289 115q-201 -129 -414 -129zM686 989q128 64 181 123t53 133q0 55 -34 91t-85 36q-86 0 -131 -43t-45 -125q0 -84 61 -215zM596 838l27 -9l4 7l-29 10zM678 141q91 0 192 56q-202 231 -342 493q-115 -55 -162 -114.5t-47 -145.5q0 -121 103.5 -205t255.5 -84z" />
    <glyph glyph-name="quotesingle" unicode="'" horiz-adv-x="657" 
d="M213 1012l-29 18q-70 42 -20 111q74 96 104 133q-92 45 -92 149q0 65 45.5 112.5t112.5 47.5q78 0 129 -61t51 -150q0 -176 -192 -350q-50 -45 -109 -10z" />
    <glyph glyph-name="parenleft" unicode="(" horiz-adv-x="681" 
d="M543 -242l-13 -4q-61 -24 -104 25q-201 220 -282 412.5t-81 449.5q0 116 28 230.5t68 202.5t101 178.5t110 149t111 124.5q41 44 103 20l12 -4q61 -24 61 -72q0 -45 -36 -90q-168 -203 -233.5 -377.5t-65.5 -416.5q0 -184 58 -335t187 -300q37 -46 37 -96v-7
q0 -66 -61 -90z" />
    <glyph glyph-name="parenright" unicode=")" horiz-adv-x="684" 
d="M156 -244l-13 4q-59 20 -59 86v9q0 51 35 94q113 140 175 325t62 385q0 206 -69 376t-224 343q-39 44 -36 90q0 51 57 76l12 4q60 27 105 -18q213 -203 312 -421.5t99 -481.5q0 -134 -32 -262t-89 -236.5t-110 -186.5t-121 -159q-42 -50 -104 -27z" />
    <glyph glyph-name="asterisk" unicode="*" horiz-adv-x="1093" 
d="M836 1004h-56h-39q14 -14 29 -23l4 -2q90 -68 121 -110.5t31 -108.5q0 -63 -44 -107.5t-108 -44.5q-78 0 -125.5 49.5t-85.5 161.5q-2 5 -5 16t-5 17l-6 -16v-5q-38 -116 -88.5 -175.5t-128.5 -59.5q-67 0 -109.5 43.5t-42.5 112.5q0 107 131 204q5 4 20.5 16t22.5 19
q-6 0 -19.5 1t-19.5 1q-126 0 -200 45t-74 136q0 74 43.5 114.5t122.5 40.5q89 0 203 -84l18 -12q-35 98 -35 172q0 83 41 133.5t115 50.5q71 0 116.5 -51t45.5 -127q0 -46 -29 -141q-9 -24 -12 -47q3 3 10 8t10 8q113 96 209 96q72 0 118 -44.5t46 -116.5q0 -78 -63.5 -125
t-161.5 -45zM549 1368q6 27 6 43q0 25 -8 25h-2v-5v-26q0 -23 4 -37zM897 1182q-24 0 -66 -25h9q21 0 37 3.5t23 7.5t7 6t1 5q-8 3 -11 3zM193 1174q0 -5 9.5 -10.5t29.5 -10t47 -6.5q-50 29 -74 29h-15zM770 762q0 11 -2 16t-11.5 15.5t-31.5 27.5q14 -36 23.5 -47.5
t21.5 -11.5zM330 750q17 0 45 61q-43 -37 -43 -59q0 -2 -2 -2z" />
    <glyph glyph-name="plus" unicode="+" horiz-adv-x="1351" 
d="M723 -39h-88q-37 0 -56.5 20.5t-19.5 57.5v463h-467q-76 0 -76 76v88q0 37 19.5 57t56.5 20h467v463q0 37 19.5 57.5t56.5 20.5h88q37 0 57.5 -20.5t20.5 -57.5v-463h459q37 0 57 -20t20 -57v-88q0 -37 -20 -56.5t-57 -19.5h-459v-463q0 -37 -20.5 -57.5t-57.5 -20.5z
" />
    <glyph glyph-name="comma" unicode="," horiz-adv-x="595" 
d="M178 -285l-49 29q-35 22 -37 51.5t29 61.5q96 96 112 120q-6 6 -8 7q-84 44 -84 143q0 69 44.5 114.5t113.5 45.5q77 0 127.5 -60.5t50.5 -150.5q0 -91 -45.5 -173.5t-144.5 -174.5q-49 -49 -109 -13zM319 104q-6 29 -20 29q-3 0 -4 2v-8l-2 -6q2 0 2 -2q12 -6 24 -15z
" />
    <glyph glyph-name="hyphen" unicode="-" horiz-adv-x="845" 
d="M731 350h-616q-76 0 -76 76v119q0 37 19.5 57.5t56.5 20.5h616q37 0 57.5 -20.5t20.5 -57.5v-119q0 -37 -20.5 -56.5t-57.5 -19.5z" />
    <glyph glyph-name="period" unicode="." horiz-adv-x="598" 
d="M295 -70q-71 0 -117.5 49.5t-46.5 122.5q0 74 46 121t118 47q75 0 124.5 -48t49.5 -120q0 -69 -52 -120.5t-122 -51.5z" />
    <glyph glyph-name="slash" unicode="/" horiz-adv-x="714" 
d="M109 -76h-93q-43 0 -59.5 25t-1.5 65l561 1499q21 62 88 62h92q43 0 60 -25t2 -65l-561 -1499q-21 -62 -88 -62z" />
    <glyph glyph-name="zero" unicode="0" horiz-adv-x="1112" 
d="M551 -90q-150 0 -263 105t-174 295t-61 438q0 242 64.5 433.5t181 299.5t264.5 108q150 0 262.5 -106.5t173 -300t60.5 -447.5q0 -238 -64 -426t-180 -293.5t-264 -105.5zM551 129q106 0 178 170t72 436q0 280 -68 458.5t-170 178.5q-87 0 -143 -82q-109 -164 -109 -542
q0 -355 95 -519q65 -100 145 -100z" />
    <glyph glyph-name="one" unicode="1" horiz-adv-x="1112" 
d="M903 -76h-696q-37 0 -56.5 20.5t-19.5 57.5v64q0 37 19.5 57t56.5 20h192h14t7.5 3.5t5 10.5t0.5 21v1051h-6h-205q-76 0 -76 69v17q0 54 37 94q38 35 94 41q117 11 248 94q48 31 96 31q34 0 52 -20.5t18 -57.5v-1319v-12.5t-0.5 -10t1.5 -6t3 -4t7 -1t10.5 -1.5h15.5
h182q37 0 57.5 -20t20.5 -57v-64q0 -37 -20.5 -57.5t-57.5 -20.5z" />
    <glyph glyph-name="two" unicode="2" horiz-adv-x="1112" 
d="M860 -76h-762q-36 0 -55.5 20.5t-19.5 57.5v45q0 49 22 94q185 329 455 566q278 248 278 426q0 110 -59 174.5t-158 64.5q-133 0 -184 -63q-50 -61 -53 -90l10 -58q0 -4 1 -11.5t1 -12.5q3 -65 -40.5 -111.5t-107.5 -46.5q-67 0 -109 45t-42 113q0 120 71.5 225
t192.5 167t260 62q212 0 343.5 -130.5t131.5 -338.5q0 -265 -338 -544q-129 -105 -218 -199t-154 -195h356q32 0 51.5 12.5t47.5 58t71 142.5q26 66 90 66h43q40 0 58 -24t8 -62l-107 -387q-18 -66 -84 -66z" />
    <glyph glyph-name="three" unicode="3" horiz-adv-x="1112" 
d="M492 -90q-131 0 -240 49.5t-171.5 136t-62.5 191.5q0 74 38.5 114.5t111.5 40.5q62 0 102.5 -45t40.5 -110q0 -17 -10 -47q-1 -3 -3 -16t-3 -17q8 -12 29 -33q45 -45 168 -45q135 0 215.5 80.5t80.5 216.5q0 101 -80.5 162t-215.5 61q-20 0 -35 -6h-2q-55 -9 -99 6l-12 6
q-65 33 -65 115q0 58 39 92.5t102 34.5q17 0 45 -8l51 -4q92 2 155.5 78.5t63.5 189.5q0 97 -57 158t-150 61q-66 0 -136 -36.5t-70 -65.5v-4q26 -44 26 -90q0 -63 -40.5 -104.5t-100.5 -41.5q-63 0 -102 40.5t-39 105.5q0 173 135 294t327 121q209 0 336 -120t127 -318
q0 -231 -176 -367q232 -127 232 -383q0 -133 -74 -246.5t-202 -180t-279 -66.5z" />
    <glyph glyph-name="four" unicode="4" horiz-adv-x="1114" 
d="M1014 -76h-561q-37 0 -56.5 20.5t-19.5 57.5v64q0 37 19.5 57t56.5 20h102q38 0 45.5 4.5t7.5 24.5v113h-545q-77 0 -77 75v37q0 52 28 95l650 1032q34 51 92 51h32q37 0 57.5 -20.5t20.5 -57.5v-993h170q37 0 57.5 -20.5t20.5 -57.5v-66q0 -36 -20.5 -55.5t-57.5 -19.5
h-170v-113q0 -24 -6 -33q12 4 31 4h123q37 0 57.5 -20t20.5 -57v-64q0 -37 -20.5 -57.5t-57.5 -20.5zM608 1028l-334 -524h334v524z" />
    <glyph glyph-name="five" unicode="5" horiz-adv-x="1112" 
d="M469 -90q-189 0 -317.5 111.5t-128.5 277.5q0 68 40 111t105 43q64 0 105.5 -44t41.5 -110q0 -49 -24 -102q3 -24 59 -46t119 -22q135 0 224 103t89 262q0 143 -64 223t-181 80q-75 0 -143 -37t-99 -94q-13 -28 -39 -44t-57 -16q-23 0 -47 6l-7 -10v12q-36 14 -59 45.5
t-23 71.5q0 31 11 57l2 3q18 44 24 110l21 598q0 37 20.5 56.5t57.5 19.5h708q68 0 86 -66l8 -26q16 -61 -24 -103l-25 -24q-36 -41 -94 -41h-541l-8 -359q120 66 246 66q211 0 348 -149.5t137 -378.5q0 -121 -44.5 -229.5t-120 -186t-181.5 -123t-225 -45.5z" />
    <glyph glyph-name="six" unicode="6" horiz-adv-x="1110" 
d="M565 -90q-243 0 -388.5 203t-145.5 538q0 511 162 727q150 209 405 209q103 0 196.5 -46.5t150 -124t56.5 -163.5q0 -66 -40.5 -109.5t-104.5 -43.5q-56 0 -95 32t-50 85q-6 34 4 77l6 31q-9 9 -55 25t-78 16q-113 0 -199 -117q-76 -103 -94 -362q145 88 291 88
q229 0 358 -122t129 -339q0 -166 -67 -305t-184 -219t-257 -80zM565 129q112 0 182 105t70 280q0 110 -60.5 170.5t-170.5 60.5q-124 0 -297 -139q4 -228 77 -352.5t199 -124.5z" />
    <glyph glyph-name="seven" unicode="7" horiz-adv-x="1112" 
d="M455 -90q-84 0 -117 52t-33 161q0 81 27 192.5t69 221t70.5 176.5t54.5 121l250 491h-354q-64 0 -100.5 -49t-88.5 -207q-20 -68 -88 -68h-63q-40 0 -58.5 22.5t-9.5 61.5l101 422q15 68 84 68h817q37 0 57.5 -20.5t20.5 -57.5v-29q0 -47 -29 -98q-270 -456 -371.5 -720
t-101.5 -511q0 -112 -29.5 -170.5t-107.5 -58.5z" />
    <glyph glyph-name="eight" unicode="8" horiz-adv-x="1112" 
d="M549 -90q-233 0 -383 128.5t-150 326.5q0 79 22 145.5t62 117t84 86.5t101 68q-205 127 -205 330q0 198 139.5 337.5t337.5 139.5q192 0 324.5 -133t132.5 -326q0 -212 -209 -350q148 -80 214 -173t66 -222q0 -133 -70 -242t-193 -171t-273 -62zM543 897
q122 57 165.5 105.5t43.5 127.5q0 104 -56 171t-141 67q-80 0 -137 -57q-72 -75 -72 -183q0 -77 43.5 -128.5t153.5 -102.5zM555 133q100 0 181 70t81 159q0 104 -41 148q-78 88 -227 152q-140 -58 -204 -130.5t-64 -171.5t76.5 -163t197.5 -64z" />
    <glyph glyph-name="nine" unicode="9" horiz-adv-x="1114" 
d="M924 1382q145 -195 145 -620q0 -254 -66 -446.5t-190 -299t-291 -106.5q-171 0 -297.5 102.5t-126.5 241.5q0 67 41.5 110.5t106.5 43.5q54 0 95 -32.5t52 -82.5q8 -36 0 -68l-6 -22q0 -5 -4 -21q9 -12 54.5 -28.5t84.5 -16.5q110 0 185 111q72 102 90 303q6 54 39 84
q-167 -107 -322 -107q-224 0 -349.5 121t-125.5 338q0 126 39.5 237.5t107 191.5t162 126.5t201.5 46.5q219 0 375 -207zM748 852l57 39q-15 272 -96 385q-69 92 -168 92q-93 0 -162 -90q-80 -108 -80 -281q0 -120 52 -175.5t163 -55.5q109 0 234 86z" />
    <glyph glyph-name="colon" unicode=":" horiz-adv-x="595" 
d="M293 711q-72 0 -120 47.5t-48 118.5q0 74 47 123t121 49q73 0 121.5 -49t48.5 -123q0 -70 -50 -118t-120 -48zM293 -94q-73 0 -120.5 48.5t-47.5 121.5t47.5 121.5t120.5 48.5q72 0 121 -48.5t49 -121.5t-49 -121.5t-121 -48.5z" />
    <glyph glyph-name="semicolon" unicode=";" horiz-adv-x="595" 
d="M299 711q-73 0 -121.5 49t-48.5 123q0 73 48 119.5t122 46.5q72 0 120 -47t48 -119t-49 -122t-119 -50zM186 -272l-45 36q-61 52 -4 109l76 72q-90 49 -90 147q0 74 44.5 122t115.5 48q90 0 141 -65t51 -174q0 -139 -180 -293q-54 -48 -109 -2z" />
    <glyph glyph-name="less" unicode="&#x3c;" horiz-adv-x="1353" 
d="M1247 -80l-1177 600q-56 29 -56 90v27q0 63 54 92l1179 610q40 20 66 4.5t26 -59.5v-104q0 -63 -55 -93l-901 -464l899 -453q57 -29 57 -90v-103q0 -46 -26 -61.5t-66 4.5z" />
    <glyph glyph-name="equal" unicode="=" horiz-adv-x="1353" 
d="M1266 694h-1182q-76 0 -76 76v88q0 37 19.5 57.5t56.5 20.5h1182q37 0 57 -20.5t20 -57.5v-88q0 -37 -20 -56.5t-57 -19.5zM1266 315h-1182q-76 0 -76 76v88q0 37 19.5 57.5t56.5 20.5h1182q37 0 57 -20.5t20 -57.5v-88q0 -37 -20 -56.5t-57 -19.5z" />
    <glyph glyph-name="greater" unicode="&#x3e;" horiz-adv-x="1353" 
d="M1276 524l-1172 -612q-40 -20 -65 -4.5t-25 59.5v105q0 63 54 92l890 463l-888 454q-56 29 -56 90v105q0 45 25 61t65 -4l1170 -594q57 -29 57 -90v-33q0 -62 -55 -92z" />
    <glyph glyph-name="question" unicode="?" horiz-adv-x="911" 
d="M432 414h-55q-76 0 -76 75v357q0 71 76 80q159 15 233 78t74 186q0 85 -61.5 137.5t-161.5 52.5q-63 0 -104 -25t-44 -61q1 -8 4.5 -26.5t4.5 -28.5q4 -12 4 -27q3 -67 -41.5 -114t-112.5 -47q-69 0 -113.5 44t-44.5 113q0 101 58 189t156 140t210 52q222 0 354 -122
t132 -330q0 -169 -111 -288t-303 -161v-199q0 -36 -20.5 -55.5t-57.5 -19.5zM401 -90q-69 0 -117 49t-48 121q0 71 47.5 119.5t117.5 48.5q72 0 121 -48t49 -120q0 -78 -46 -124t-124 -46z" />
    <glyph glyph-name="at" unicode="@" horiz-adv-x="2215" 
d="M1288 -295q-219 0 -414.5 74t-335 200t-221 301t-81.5 371q0 197 76 374t206.5 304.5t312.5 202t386 74.5q193 0 362.5 -59.5t290 -163t190.5 -248t70 -308.5q0 -224 -90.5 -405.5t-250 -284t-355.5 -102.5q-178 0 -213 129q-111 -60 -205 -60q-164 0 -271.5 122.5
t-107.5 310.5q0 132 49.5 253.5t132.5 210.5t197 142t237 53q126 0 224 -92q10 26 75 26h103q42 0 59.5 -24t5.5 -64l-237 -772q111 8 205 77.5t149 183t55 245.5q0 120 -52 226.5t-141.5 183.5t-215 121.5t-266.5 44.5q-208 0 -378 -91.5t-267 -252t-97 -357.5
q0 -315 223.5 -508.5t589.5 -193.5q171 0 330 64t276 180q43 40 95 40h10q63 0 92 -57l4 -10q27 -59 -12 -107q-148 -171 -353.5 -262.5t-441.5 -91.5zM1024 338q78 0 254 117l121 395q-83 129 -133 129q-89 0 -179 -72t-148 -185.5t-58 -225.5q0 -158 143 -158z" />
    <glyph glyph-name="A" unicode="A" horiz-adv-x="1718" 
d="M612 -76h-526q-76 0 -76 72v14q0 54 37 94q39 36 96 39q61 3 80.5 22.5t52.5 100.5l461 1207q20 54 68 73l47 23l33 16l18 8q74 31 101 -43l489 -1372q12 -35 57 -35h82q37 0 57.5 -20t20.5 -57v-64q0 -37 -20.5 -57.5t-57.5 -20.5h-530q-37 0 -56.5 20.5t-19.5 57.5v64
q0 37 19.5 57t56.5 20h59q25 1 49 0q13 2 13 3v4q0 3 -1.5 7.5t-4.5 14t-5 18.5l-90 252h-538l-88 -233q-15 -41 -15 -59v-4t10 -2t33 -1h88q37 0 57.5 -20t20.5 -57v-64q0 -37 -20.5 -57.5t-57.5 -20.5zM864 1176l-198 -517h378z" />
    <glyph glyph-name="B" unicode="B" horiz-adv-x="1480" 
d="M721 -76h-619q-36 0 -55.5 20.5t-19.5 57.5v72q0 37 19.5 57.5t55.5 20.5h84q25 0 30 4t5 20v1141q0 24 -5 28.5t-32 4.5h-82q-75 0 -75 75v72q0 37 19.5 57.5t55.5 20.5h662q271 0 425 -109.5t154 -304.5q0 -212 -194 -338q128 -57 198 -157.5t70 -231.5
q0 -244 -182.5 -377t-513.5 -133zM479 1317v-414h172q195 0 314.5 70.5t119.5 187.5q0 90 -82 139.5t-239 49.5h-258h-8h-6.5t-4.5 -0.5t-3.5 -1t-2 -3t-1.5 -3.5t-0.5 -6t-0.5 -8v-11zM514 152h207q212 0 325 73.5t113 208.5q0 91 -59 141q-40 41 -150.5 72t-220.5 31h-250
v-502q0 -10 -2 -21q-1 -5 0 -5.5t6 0.5q15 2 31 2z" />
    <glyph glyph-name="C" unicode="C" horiz-adv-x="1492" 
d="M760 -90q-198 0 -357.5 109.5t-249.5 302.5t-90 430q0 368 218 612q201 227 522 227q127 0 305 -90l12 8q50 27 97 27q55 0 73 -66l105 -372q10 -40 -4.5 -63t-49.5 -23h-26q-55 0 -86 20q-32 18 -58 66q-142 274 -368 274q-134 0 -241.5 -76t-167.5 -211t-60 -303
q0 -298 130.5 -470.5t358.5 -172.5q109 0 201 72.5t178 228.5q28 51 80 68q57 15 82 0q26 -15 43 -66q14 -52 -10 -102q-129 -236 -272.5 -333t-364.5 -97z" />
    <glyph glyph-name="D" unicode="D" horiz-adv-x="1492" 
d="M647 -76h-545q-36 0 -55.5 20.5t-19.5 57.5v64q0 77 75 77h80q31 0 39 14.5t8 82.5v1013v18v35.5t-4.5 23t-9.5 15.5t-21.5 7t-33 4h-51.5q-82 3 -82 78v63q0 37 19.5 57.5t55.5 20.5h570q357 0 557.5 -219.5t200.5 -612.5q0 -278 -121 -473q-212 -346 -662 -346z
M555 143h92q161 0 268 62q113 62 178.5 216.5t65.5 360.5q0 298 -123 430q-140 146 -364 146h-113h-25t-18 -1t-13.5 -1t-8.5 -4t-6 -5t-2.5 -8.5t-1 -11t0.5 -15v-18.5v-1118q0 -23 9 -28t61 -5z" />
    <glyph glyph-name="E" unicode="E" horiz-adv-x="1505" 
d="M1206 -76h-1104q-36 0 -55.5 20.5t-19.5 57.5v64q0 77 75 77h105q22 0 22 37v1092q0 40 -10 63t-22 23h-95q-75 0 -75 76v63q0 37 19.5 57.5t55.5 20.5h1108q68 0 86 -64l129 -399q12 -40 -1.5 -63t-49.5 -23h-24q-52 0 -88 23q-36 24 -58 75q-56 133 -115.5 183.5
t-154.5 50.5h-424q-25 0 -25 -86v-400h273q22 0 33.5 0.5t25.5 3t20 6t13.5 13t9.5 20t4.5 29.5t3 40t0.5 54q2 40 22 62t56 22h51q37 0 57.5 -20.5t20.5 -57.5v-563q0 -75 -65 -75h-9q-55 0 -94 36q-36 39 -39 99q-1 44 -4 65.5t-18 33.5t-31 13.5t-57 1.5h-273v-475
q0 -23 5.5 -30t21.5 -7h395q45 0 86 11t75.5 33.5t61.5 45t54.5 58.5t44.5 60t41 63q29 51 92 51h55q44 0 60.5 -25.5t-2.5 -66.5l-179 -389q-26 -60 -90 -60z" />
    <glyph glyph-name="F" unicode="F" horiz-adv-x="1476" 
d="M629 -76h-531q-36 0 -55.5 20.5t-19.5 57.5v64q0 77 75 77h131q1 0 3.5 -1t3.5 -1q-3 3 -3 15v1173q-2 30 -4 30q-2 -1 -4 -1h-127q-75 0 -75 76v63q0 37 19.5 57.5t55.5 20.5h1151q67 0 88 -64l138 -389q13 -40 -4 -63t-60 -23h-53q-64 0 -92 58q-74 151 -140.5 207.5
t-167.5 56.5h-450q-13 0 -16 -4t-3 -25v-457h275q22 0 33.5 0.5t25.5 3t20 6t13.5 13t9.5 20t4.5 29.5t3 40t0.5 54q2 40 22 62t56 22h52q37 0 57 -20.5t20 -57.5v-563q0 -75 -65 -75h-8q-56 0 -95 36q-36 39 -39 99q-1 44 -4 65.5t-18 33.5t-31 13.5t-57 1.5h-275v-499
q0 -7 3 -10t14 -3h123q37 0 57.5 -20t20.5 -57v-64q0 -37 -20.5 -57.5t-57.5 -20.5z" />
    <glyph glyph-name="G" unicode="G" horiz-adv-x="1613" 
d="M782 -90q-200 0 -365 109t-259.5 298t-94.5 416q0 402 246 639q223 217 520 217q123 0 297 -86l13 6q49 27 96 27q56 0 74 -66l104 -372q11 -40 -6.5 -63t-58.5 -23h-52q-65 0 -90 57q-88 177 -182 238q-101 65 -195 65q-140 0 -253 -82t-177.5 -228.5t-64.5 -328.5
q0 -168 61 -307t166 -218t230 -79q143 0 250.5 55.5t107.5 126.5v170q0 31 -47 31h-109q-75 0 -75 76v63q0 37 19.5 57.5t55.5 20.5h527q37 0 57 -20.5t20 -57.5v-63q0 -37 -20 -56.5t-57 -19.5h-103q-4 0 -5.5 -1t-3 -8t-1.5 -22v-385q0 -73 -80 -76q-117 0 -221 -43
q-149 -67 -324 -67z" />
    <glyph glyph-name="H" unicode="H" horiz-adv-x="1609" 
d="M610 -76h-512q-36 0 -55.5 20.5t-19.5 57.5v64q0 77 75 77h115q10 0 13 2.5t3 8.5v1177q0 17 -2.5 22t-15.5 5h-111q-75 0 -75 76v63q0 37 19.5 57.5t55.5 20.5h510q37 0 57.5 -20.5t20.5 -57.5v-63q0 -37 -20.5 -56.5t-57.5 -19.5h-102q-18 0 -20.5 -3.5t-2.5 -23.5
v-448h633v458q0 13 -3 15t-15 2h-119q-76 0 -76 76v63q0 37 19.5 57.5t56.5 20.5h528q37 0 57.5 -20.5t20.5 -57.5v-63q0 -37 -20.5 -56.5t-57.5 -19.5h-106q-19 0 -23 -3t-4 -14v-1187q0 -6 0.5 -7.5t5.5 -2.5t19 -1h108q37 0 57.5 -20t20.5 -57v-64q0 -37 -20.5 -57.5
t-57.5 -20.5h-528q-37 0 -56.5 20.5t-19.5 57.5v64q0 37 19.5 57t56.5 20h127q8 0 12 -3q-2 5 -2 14v512h-633v-512v-3v-2.5t0.5 -2t2 -2t4 -1t6.5 -0.5h10h102q37 0 57.5 -20t20.5 -57v-64q0 -37 -20.5 -57.5t-57.5 -20.5z" />
    <glyph glyph-name="I" unicode="I" horiz-adv-x="784" 
d="M684 -76h-582q-36 0 -55.5 20.5t-19.5 57.5v64q0 77 75 77h140q18 0 21 3t3 20v1169q0 4 1 11.5t-0.5 8t-6.5 2t-18 1.5h-140q-75 0 -75 76v63q0 37 19.5 57.5t55.5 20.5h582q37 0 57.5 -20.5t20.5 -57.5v-63q0 -37 -20.5 -56.5t-57.5 -19.5h-129h-10q-19 0 -22 -1t-1 -7
q2 -8 2 -15v-1169v-9t-0.5 -6.5t0.5 -4t1.5 -3t3.5 -1t5.5 0t8.5 0.5h12h129q37 0 57.5 -20t20.5 -57v-64q0 -37 -20.5 -57.5t-57.5 -20.5z" />
    <glyph glyph-name="J" unicode="J" horiz-adv-x="1114" 
d="M459 -90q-178 0 -304 109.5t-126 263.5q0 73 38.5 118t106.5 45q60 0 100 -31.5t50 -86.5q6 -34 -5 -80l-6 -35q3 -38 49 -61t119 -23q42 0 88 57q56 78 56 263v892q0 17 -39 17h-115q-76 0 -76 76v63q0 37 19.5 57.5t56.5 20.5h567q37 0 57.5 -20.5t20.5 -57.5v-63
q0 -37 -20.5 -56.5t-57.5 -19.5h-112q-16 0 -25 -0.5t-13 -2.5l-5 -2.5t-0.5 -5.5t0.5 -6v-892q0 -248 -114.5 -393.5t-309.5 -145.5z" />
    <glyph glyph-name="K" unicode="K" horiz-adv-x="1595" 
d="M614 -76h-510q-36 0 -55.5 20.5t-19.5 57.5v64q0 77 75 77h66q43 0 52 14t9 87v1052q0 36 -6.5 49t-21.5 13h-105q-75 0 -75 76v63q0 37 19.5 57.5t55.5 20.5h514q37 0 57.5 -20.5t20.5 -57.5v-63q0 -37 -20.5 -56.5t-57.5 -19.5h-96q-23 0 -26 -7.5t-3 -54.5v-448
l463 498l11 12h-41q-76 0 -76 76v63q0 37 19.5 57.5t56.5 20.5h495q37 0 57.5 -20.5t20.5 -57.5v-63q0 -37 -20.5 -56.5t-57.5 -19.5h-72q-63 0 -90 -16.5t-100 -100.5l-297 -317l487 -713q49 -68 107 -68h70q37 0 57 -20t20 -57v-64q0 -37 -20 -57.5t-57 -20.5h-502
q-37 0 -56.5 20.5t-19.5 57.5v64q0 77 64 77h63l-10 17l-383 571l-189 -207v-280q0 -77 2 -89.5t14 -11.5h7h104q37 0 57.5 -20t20.5 -57v-64q0 -37 -20.5 -57.5t-57.5 -20.5z" />
    <glyph glyph-name="L" unicode="L" horiz-adv-x="1527" 
d="M1237 -76h-1139q-36 0 -55.5 20.5t-19.5 57.5v64q0 77 75 77h129h3.5h3.5h2.5t2.5 1t2 2.5t1.5 4t1 6.5t0.5 9v12v1147q0 19 -5 26t-18 7h-123q-75 0 -75 76v63q0 37 19.5 57.5t55.5 20.5h545q37 0 57.5 -20.5t20.5 -57.5v-63q0 -37 -20.5 -56.5t-57.5 -19.5h-111
q-24 0 -28 -4t-4 -29v-1147q0 -21 11.5 -28t47.5 -7h307q147 0 239.5 60t184.5 219q34 55 92 55h56q44 0 60 -25t-1 -65l-172 -403q-25 -60 -88 -60z" />
    <glyph glyph-name="M" unicode="M" horiz-adv-x="1947" 
d="M530 -76h-448q-37 0 -56.5 20.5t-19.5 57.5v64q0 37 19.5 57t56.5 20h96h6.5h5.5t4 0.5t3.5 1.5l1.5 3t1 5t0.5 7t0.5 10v1165v15q1 8 0 9t-6 0q-7 -1 -13 -1h-100q-76 0 -76 76v63q0 37 19.5 57.5t56.5 20.5h340q64 0 88 -62l448 -1122l455 1122q24 62 88 62h334
q37 0 57.5 -20.5t20.5 -57.5v-63q0 -37 -20.5 -56.5t-57.5 -19.5h-98q-6 0 -10.5 1t-5.5 2t-3 2t-2 -1v-1188q0 -19 -1 -32v-2q2 3 5 3h115q37 0 57.5 -20t20.5 -57v-64q0 -37 -20.5 -57.5t-57.5 -20.5h-500q-36 0 -55.5 20.5t-19.5 57.5v64q0 77 75 77h111q7 0 9.5 5.5
t2.5 25.5v852l-420 -1036q-24 -62 -88 -62h-35q-64 0 -88 62l-407 1009v-829q0 -9 0.5 -13.5t0.5 -8t2 -4.5t2.5 -1.5t4.5 0t6 0.5h94q37 0 57.5 -20t20.5 -57v-64q0 -37 -20.5 -57.5t-57.5 -20.5z" />
    <glyph glyph-name="N" unicode="N" horiz-adv-x="1576" 
d="M532 -76h-450q-37 0 -56.5 20.5t-19.5 57.5v64q0 37 19.5 57t56.5 20h88q7 0 19 18t12 36v1140q0 12 -3.5 16.5t-17.5 4.5h-98q-76 0 -76 76v63q0 37 19.5 57.5t56.5 20.5h283q58 0 92 -51l700 -1057v874q0 8 -0.5 10.5t-6.5 4.5t-20 2h-90q-75 0 -75 76v63
q0 37 19.5 57.5t55.5 20.5h453q37 0 57.5 -20.5t20.5 -57.5v-63q0 -37 -20.5 -56.5t-57.5 -19.5h-96q-13 0 -17 -3.5t-4 -13.5v-1339q0 -37 -20.5 -57.5t-57.5 -20.5h-43q-61 0 -90 53l-100 162l-645 977v-919q0 -30 8 -42t27 -12h77q37 0 57.5 -20t20.5 -57v-64
q0 -37 -20.5 -57.5t-57.5 -20.5z" />
    <glyph glyph-name="O" unicode="O" horiz-adv-x="1638" 
d="M829 -106q-219 0 -394 110t-273.5 305t-98.5 439q0 236 101 433.5t277.5 312t387.5 114.5q153 0 292 -68t238.5 -183t158.5 -274t59 -335q0 -241 -97 -436.5t-268.5 -306.5t-382.5 -111zM829 113q208 0 342 177.5t134 457.5q0 183 -62 329.5t-171 229t-243 82.5
q-194 0 -333 -154q-162 -195 -162 -487q0 -283 137.5 -459t357.5 -176z" />
    <glyph glyph-name="P" unicode="P" horiz-adv-x="1441" 
d="M608 -76h-510q-36 0 -55.5 20.5t-19.5 57.5v64q0 77 75 77h107q20 0 20 37v1129q0 30 -7 39.5t-23 9.5h-95q-75 0 -75 76v63q0 37 19.5 57.5t55.5 20.5h631q690 0 690 -451q0 -220 -184 -356q-181 -129 -567 -129h-189v-459q0 -23 7 -30t30 -7h90q37 0 57.5 -20t20.5 -57
v-64q0 -37 -20.5 -57.5t-57.5 -20.5zM481 1309v-453h189q252 0 372.5 64.5t120.5 203.5q0 101 -90 170q-103 64 -342 64h-178q-55 0 -63.5 -6t-8.5 -43z" />
    <glyph glyph-name="Q" unicode="Q" horiz-adv-x="1630" 
d="M1272 -291q-101 0 -169.5 48t-127.5 159q-82 -16 -146 -16q-157 0 -299 64.5t-244.5 174t-162.5 261t-60 319.5q0 182 59.5 345t161 281t244 187.5t301.5 69.5q158 0 296 -67t235 -183t153 -279.5t56 -349.5q0 -205 -91 -382.5t-261 -305.5q33 -51 52 -63.5t52 -12.5
q13 0 45 16q50 26 94 19q52 -6 72 -31t14 -80q-9 -57 -53 -88q-131 -86 -221 -86zM1094 242l6 6q196 214 196 475q0 188 -61 339t-168 235.5t-238 84.5q-133 0 -247 -90t-181 -243t-67 -330q0 -199 96 -350q44 58 113.5 91.5t154.5 33.5q122 0 217 -61t179 -191zM778 119
q76 0 103 2q-44 94 -81.5 123.5t-101.5 29.5q-94 0 -94 -59q0 -30 41 -55l111 -39q4 0 11.5 -1t10.5 -1z" />
    <glyph glyph-name="R" unicode="R" horiz-adv-x="1519" 
d="M608 -76h-510q-36 0 -55.5 20.5t-19.5 57.5v64q0 77 75 77h107q20 0 20 11v1177q0 16 -5.5 21.5t-24.5 5.5h-97q-75 0 -75 76v63q0 37 19.5 57.5t55.5 20.5h631q347 0 519.5 -111t172.5 -338q0 -221 -186 -356q-110 -76 -285 -111l283 -466l43 -48q4 -2 29 -2h100
q37 0 57.5 -20t20.5 -57v-64q0 -37 -20.5 -57.5t-57.5 -20.5h-260q-59 0 -92 53l-385 662h-187v-485q0 -6 6.5 -8.5t28.5 -2.5h92q37 0 57.5 -20t20.5 -57v-64q0 -37 -20.5 -57.5t-57.5 -20.5zM481 1331v-475h187q271 0 383 72q112 73 112 198q0 99 -94 166q-91 66 -340 66
h-176q-55 0 -64 -2.5t-8 -16.5v-8z" />
    <glyph glyph-name="S" unicode="S" horiz-adv-x="1386" 
d="M758 -96q-156 0 -371 102l-4 -4q-41 -41 -90 -41q-52 0 -76 62l-145 358q-17 40 -0.5 65t59.5 25h49q56 0 94 -47q244 -301 484 -301q121 0 209 75.5t88 178.5q0 85 -94 147t-265 88q-328 52 -446 201q-100 130 -100 301q0 132 68.5 242.5t187 174.5t258.5 64
q135 0 323 -90q42 33 90 33q51 0 72 -63l123 -365q13 -40 -4 -63t-60 -23h-51q-64 0 -92 55q-94 163 -185 231t-216 68q-110 0 -183 -66t-73 -163q0 -120 69 -180t244 -92q313 -45 446 -166q146 -127 146 -287q0 -221 -159.5 -370.5t-395.5 -149.5z" />
    <glyph glyph-name="T" unicode="T" horiz-adv-x="1677" 
d="M1094 -76h-516q-37 0 -56.5 20.5t-19.5 57.5v64q0 37 19.5 57t56.5 20h100q18 0 23.5 5.5t5.5 25.5v1174q0 7 -5 8.5t-28 1.5q-155 0 -243.5 -57.5t-188.5 -223.5q-31 -53 -92 -53h-56q-43 0 -59.5 24t0.5 64l164 401q24 62 88 62h1079q64 0 90 -57l184 -396
q20 -40 4 -65t-61 -25h-55q-61 0 -92 53q-74 120 -130.5 175.5t-124.5 76.5t-186 21q-30 0 -30 -10v-1174v-8.5v-7t0.5 -5t0.5 -4.5t1.5 -2.5t2.5 -2t4 -1t5.5 -0.5h7.5h107q37 0 57 -20t20 -57v-64q0 -37 -20 -57.5t-57 -20.5z" />
    <glyph glyph-name="U" unicode="U" horiz-adv-x="1550" 
d="M741 -96q-271 0 -419 157q-123 129 -123 392v835q0 27 -4.5 45t-9.5 24.5t-11 6.5h-106q-37 0 -57.5 19.5t-20.5 56.5v57q0 37 20.5 57.5t57.5 20.5h512q37 0 57 -20.5t20 -57.5v-57q0 -37 -20 -56.5t-57 -19.5h-86q-21 0 -30 -15.5t-9 -60.5v-835q0 -163 85 -246.5
t251 -83.5q163 0 253.5 102.5t90.5 290.5v776l-2 18q-2 19 -4 36.5t-1 17.5h-106q-76 0 -76 76v57q0 37 19.5 57.5t56.5 20.5h448q37 0 57.5 -20.5t20.5 -57.5v-57q0 -37 -20.5 -56.5t-57.5 -19.5h-92q-4 0 -8.5 -7t-8 -24t-3.5 -41v-776q0 -293 -161 -452.5t-456 -159.5z
" />
    <glyph glyph-name="V" unicode="V" horiz-adv-x="1693" 
d="M854 -90h-37q-64 0 -88 61l-500 1319q-15 40 -28 54t-35 14h-90q-37 0 -57.5 19.5t-20.5 56.5v63q0 37 20.5 57.5t57.5 20.5h522q37 0 57.5 -20.5t20.5 -57.5v-63q0 -37 -20.5 -56.5t-57.5 -19.5h-106q-19 0 -21 2q0 -2 4 -12l381 -996l395 983q6 12 6 23h-22h-100
q-76 0 -76 76v63q0 37 19.5 57.5t56.5 20.5h477q37 0 57.5 -20.5t20.5 -57.5v-63q0 -37 -20.5 -56.5t-57.5 -19.5h-84q-24 0 -33.5 -11t-30.5 -67l-522 -1309q-24 -61 -88 -61z" />
    <glyph glyph-name="W" unicode="W" horiz-adv-x="1918" 
d="M657 -90h-34q-69 0 -84 67l-50 183l-288 1112q-10 38 -26.5 62t-27.5 24h-65q-76 0 -76 76v63q0 37 19.5 57.5t56.5 20.5h469q37 0 57.5 -20.5t20.5 -57.5v-63q0 -37 -20.5 -56.5t-57.5 -19.5h-94h-11q0 -1 1.5 -4.5t1.5 -5.5q0 -25 4 -37l204 -791l205 793l1 3q1 4 1 9
q0 14 -7 23.5t-17 9.5h-82q-76 0 -76 76v63q0 37 19.5 57.5t56.5 20.5h430q37 0 57.5 -20.5t20.5 -57.5v-63q0 -37 -20.5 -56.5t-57.5 -19.5h-72h-4q0 -1 1 -2t1 -2q0 -29 6 -49l170 -752l209 756q6 21 6 41v8h-102q-76 0 -76 76v63q0 37 19.5 57.5t56.5 20.5h442
q37 0 57.5 -20.5t20.5 -57.5v-63q0 -37 -20.5 -56.5t-57.5 -19.5h-94q-4 0 -9.5 -7.5t-14 -29t-15.5 -51.5l-338 -1284q0 -37 -20.5 -56.5t-57.5 -19.5h-51q-69 0 -84 67l-194 857l-195 -748l-31 -111q-18 -65 -84 -65z" />
    <glyph glyph-name="X" unicode="X" horiz-adv-x="1554" 
d="M549 -76h-477q-37 0 -57.5 18.5t-20.5 53.5v14q0 52 39 94q35 33 94 39q40 4 66 26.5t77 94.5l359 524l-342 527q-24 43 -105 43h-69q-76 0 -76 76v63q0 37 19.5 57.5t56.5 20.5h555q37 0 57 -20.5t20 -57.5v-63q0 -37 -20 -56.5t-57 -19.5h-111l223 -346l191 276
q28 45 39 70h-66q-76 0 -76 76v63q0 37 19.5 57.5t56.5 20.5h475q37 0 57.5 -20.5t20.5 -57.5v-63q0 -37 -20.5 -56.5t-57.5 -19.5h-61q-52 0 -76 -14t-55 -64l-320 -465l330 -502q66 -109 96 -139.5t64 -30.5h76q37 0 57 -20t20 -57v-64q0 -37 -20 -57.5t-57 -20.5h-558
q-36 0 -55.5 20.5t-19.5 57.5v64q0 77 75 77h89q22 0 30 4q-8 36 -41 82l-237 363l-283 -416q-12 -19 -12 -33q0 -2 -4 -2h75q45 1 70 -18.5t25 -56.5v-64q0 -37 -20.5 -57.5t-57.5 -20.5z" />
    <glyph glyph-name="Y" unicode="Y" horiz-adv-x="1568" 
d="M1038 -76h-516q-37 0 -56.5 20.5t-19.5 57.5v64q0 37 19.5 57t56.5 20h109q10 0 15 8.5t5 38.5v385l-418 732q-18 31 -32.5 41t-44.5 10h-80q-37 0 -57.5 19.5t-20.5 56.5v63q0 37 20.5 57.5t57.5 20.5h518q37 0 57.5 -20.5t20.5 -57.5v-63q0 -37 -20.5 -56.5
t-57.5 -19.5h-96l301 -524l299 524h-70q-70 0 -70 76v63q0 37 19.5 57.5t56.5 20.5h449q37 0 57.5 -20.5t20.5 -57.5v-63q0 -37 -20.5 -56.5t-57.5 -19.5h-84q-33 0 -46 -5.5t-24 -23.5l-420 -743v-396q0 -30 4.5 -38.5t16.5 -8.5h108q37 0 57.5 -20t20.5 -57v-64
q0 -37 -20.5 -57.5t-57.5 -20.5z" />
    <glyph glyph-name="Z" unicode="Z" horiz-adv-x="1363" 
d="M1075 -76h-993q-76 0 -76 64v8q0 51 29 96l899 1266h-301q-136 0 -208.5 -50.5t-158.5 -205.5q-28 -55 -92 -55h-55q-43 0 -59 24t-1 64l152 378q24 62 88 62h936q37 0 57.5 -19t20.5 -53v-18q0 -52 -33 -96l-901 -1246h373q119 0 201 59t171 208q34 55 93 55h53
q44 0 60 -25t-1 -65l-166 -391q-25 -60 -88 -60z" />
    <glyph glyph-name="bracketleft" unicode="[" horiz-adv-x="653" 
d="M561 -293h-446q-37 0 -56.5 20.5t-19.5 57.5v1716q0 37 19.5 57.5t56.5 20.5h446q37 0 57.5 -20.5t20.5 -57.5v-82q0 -37 -20.5 -56.5t-57.5 -19.5h-268v-1400h268q37 0 57.5 -19.5t20.5 -56.5v-82q0 -37 -20.5 -57.5t-57.5 -20.5z" />
    <glyph glyph-name="backslash" unicode="\" horiz-adv-x="714" 
d="M637 -76h-90q-68 0 -86 66l-451 1497q-12 40 6.5 64t59.5 24h90q68 0 86 -66l450 -1497q12 -40 -6 -64t-59 -24z" />
    <glyph glyph-name="bracketright" unicode="]" horiz-adv-x="649" 
d="M571 -293h-471q-36 0 -55.5 20.5t-19.5 57.5v82q0 76 75 76h295v1400h-295q-75 0 -75 76v82q0 37 19.5 57.5t55.5 20.5h471q37 0 57.5 -20.5t20.5 -57.5v-1716q0 -37 -20.5 -57.5t-57.5 -20.5z" />
    <glyph glyph-name="asciicircum" unicode="^" horiz-adv-x="802" 
d="M74 1057l-33 28q-54 48 -10 107l217 305q61 90 141 90q74 0 121 -67l260 -316q47 -56 -10 -106l-35 -33q-52 -49 -109 2l-225 207l-209 -215q-50 -53 -108 -2z" />
    <glyph glyph-name="underscore" unicode="_" horiz-adv-x="1259" 
d="M1221 -299h-1182q-37 0 -57.5 20.5t-20.5 57.5v90q0 37 20.5 56.5t57.5 19.5h1182q37 0 57 -19.5t20 -56.5v-90q0 -37 -20 -57.5t-57 -20.5z" />
    <glyph glyph-name="grave" unicode="`" horiz-adv-x="684" 
d="M301 1028q-86 0 -132 64.5t-46 173.5q0 77 32.5 146t104.5 142q38 38 88 41q47 5 70 -12q23 -14 26 -72v-6q3 -57 -41 -98q-57 -60 -57 -68q4 4 12 0l-2 2q51 -20 78 -61.5t27 -97.5q0 -67 -45.5 -110.5t-114.5 -43.5z" />
    <glyph glyph-name="a" unicode="a" horiz-adv-x="1126" 
d="M381 -117q-145 0 -236.5 90t-91.5 234q0 163 133 266q142 107 498 162v70q0 60 -51.5 104.5t-120.5 44.5q-45 0 -92 -22.5t-47 -38.5v-19q0 -6 1 -17t1 -14q0 -61 -38.5 -97t-100.5 -36t-101 39t-39 101q0 134 122 227.5t294 93.5q179 0 304.5 -107t125.5 -259v-461
l121 -66q63 -35 43 -100q-62 -190 -201 -193q-46 -2 -88 31t-63 94q-161 -127 -373 -127zM422 102q88 0 169 52.5t93 117.5v140q-223 -46 -317 -113q-56 -34 -56 -92q0 -41 33.5 -73t77.5 -32z" />
    <glyph glyph-name="b" unicode="b" horiz-adv-x="1128" 
d="M571 -90q-134 0 -252 80l-2 -2q-21 -64 -88 -64h-39q-36 0 -55.5 20.5t-19.5 57.5v1290q-13 0 -23 2q-52 3 -86.5 37t-34.5 74q0 39 33.5 71.5t83.5 41.5q81 11 191 71q41 23 67.5 10t26.5 -59v-551q111 60 245 60q199 0 328 -152t129 -387q0 -263 -141 -431.5
t-363 -168.5zM571 129q102 0 164 76q84 101 84 305q0 173 -71 250q-68 71 -164 71q-55 0 -119 -39t-92 -87v-465q27 -45 84.5 -78t113.5 -33z" />
    <glyph glyph-name="c" unicode="c" horiz-adv-x="1110" 
d="M590 -117q-237 0 -387 169t-150 435q0 253 162 418.5t408 165.5q165 0 286 -104.5t121 -249.5q0 -59 -41.5 -97t-103.5 -38q-70 0 -112 51.5t-25 122.5v4q0 6 1 14t1 10q-3 23 -43 46.5t-84 23.5q-125 0 -212 -97.5t-87 -236.5q0 -186 79.5 -296.5t212.5 -110.5
q62 0 113 32.5t113 114.5q35 49 86 57q55 9 80 -8q28 -19 36 -71q12 -54 -20 -99q-97 -134 -200.5 -195t-233.5 -61z" />
    <glyph glyph-name="d" unicode="d" horiz-adv-x="1206" 
d="M537 -90q-215 0 -349.5 165t-134.5 427q0 147 69 273t188.5 200t260.5 74q111 0 201 -43v286l-24 -4q-54 -3 -97 37q-37 40 -37 72q0 29 37 69q37 34 92 43q77 15 193 80q41 25 67.5 11t26.5 -60v-1362q0 -25 3 -30t18 -5h84q37 0 57 -20t20 -57v-64q0 -37 -20 -57.5
t-57 -20.5h-287q-76 0 -76 21v18q-95 -53 -235 -53zM563 137q72 0 130.5 44.5t78.5 113.5v430q-25 38 -85 68t-116 30q-106 0 -177.5 -91t-71.5 -230q0 -163 66.5 -264t174.5 -101z" />
    <glyph glyph-name="e" unicode="e" horiz-adv-x="1093" 
d="M578 -115q-228 0 -376.5 165.5t-148.5 416.5q0 166 67 305.5t183 220t254 80.5t250 -73.5t175 -202t62 -285.5q0 -74 -77 -74h-656q9 -138 93.5 -236t193.5 -98q69 0 122 33.5t122 124.5q34 45 88 53q50 11 78 -8q28 -20 34 -74q9 -57 -26 -100q-117 -141 -211 -194.5
t-227 -53.5zM334 655h442q-18 92 -61 138q-60 63 -158 63q-70 0 -130.5 -55t-92.5 -146z" />
    <glyph glyph-name="f" unicode="f" horiz-adv-x="892" 
d="M676 -76h-522q-37 0 -56.5 20.5t-19.5 57.5v64q0 37 19.5 57t56.5 20h116h16q1 1 1 17v665h-193q-76 0 -76 76v64q0 37 19.5 57t56.5 20h193v11q0 260 94 399q95 137 274 137q159 0 267 -87t108 -218q0 -56 -41.5 -95.5t-99.5 -39.5q-59 0 -100 40t-41 97v43
q0 20 -24.5 33.5t-66.5 13.5q-63 0 -87.5 -50t-24.5 -187v-97h203q37 0 57 -20t20 -57v-64q0 -37 -20 -56.5t-57 -19.5h-203v-665q0 -14 -3 -21h1q4 4 14 4h119q37 0 57.5 -20t20.5 -57v-64q0 -37 -20.5 -57.5t-57.5 -20.5z" />
    <glyph glyph-name="g" unicode="g" horiz-adv-x="1179" 
d="M549 -299q-260 0 -398.5 58t-138.5 190q-1 77 42.5 132.5t121.5 84.5q-59 39 -59 115q-2 38 25 75.5t75 55.5q-121 96 -121 254q0 170 129 279.5t326 109.5q134 0 246 -64q109 84 219 84q64 0 107.5 -37t43.5 -96q0 -62 -38.5 -98.5t-102.5 -36.5q-25 0 -65 14
q-1 0 -3.5 1t-3.5 1q33 -78 33 -153q0 -162 -132.5 -263.5t-342.5 -101.5q-12 0 -12 -8q0 -5 10 -8l127 -21q246 -39 363.5 -100t117.5 -172q0 -138 -154.5 -216.5t-414.5 -78.5zM541 518q84 0 136 42t52 110q0 76 -49 122t-129 46q-92 0 -144.5 -46.5t-52.5 -125.5
q0 -64 53.5 -106t133.5 -42zM549 -80q112 0 185 8.5t99.5 19.5t26.5 25q-1 12 -12.5 19t-68 18.5t-175.5 28.5l-174 24q-162 -52 -162 -98q0 -18 14 -25.5t75 -13t192 -6.5z" />
    <glyph glyph-name="h" unicode="h" horiz-adv-x="1208" 
d="M483 -76h-411q-37 0 -57.5 20.5t-20.5 57.5v64q0 37 20.5 57t57.5 20h80v1139q-2 0 -8 1t-11 1q-59 7 -92 37.5t-33 75.5q0 44 32.5 72.5t86.5 39.5q77 15 188 82q40 24 67.5 10t27.5 -61v-573q124 82 286 82q156 0 248 -89.5t92 -240.5v-576h103q37 0 57.5 -20t20.5 -57
v-64q0 -37 -20.5 -57.5t-57.5 -20.5h-459q-37 0 -56.5 20.5t-19.5 57.5v64q0 37 19.5 57t56.5 20h98v576q0 53 -32 82.5t-89 29.5q-81 0 -154.5 -53.5t-92.5 -124.5v-510h73q37 0 57.5 -20t20.5 -57v-64q0 -37 -20.5 -57.5t-57.5 -20.5z" />
    <glyph glyph-name="i" unicode="i" horiz-adv-x="739" 
d="M381 1253q-71 0 -117.5 48.5t-46.5 121.5q0 72 46 120t118 48t123 -49t51 -119t-52 -120t-122 -50zM618 -76h-503q-37 0 -56.5 20.5t-19.5 57.5v64q0 37 19.5 57t56.5 20h123q4 0 9 -1q3 -1 4 -0.5t1 5.5v594q-2 0 -23 7q-58 12 -91.5 42t-33.5 70q0 39 34.5 71.5
t84.5 41.5q80 15 191 76q41 25 67.5 10.5t26.5 -60.5v-858q1 0 3.5 1t4.5 1h102q37 0 57.5 -20t20.5 -57v-64q0 -37 -20.5 -57.5t-57.5 -20.5z" />
    <glyph glyph-name="j" unicode="j" horiz-adv-x="821" 
d="M444 1253q-72 0 -117.5 48t-45.5 122q0 72 46.5 120t116.5 48q74 0 124 -48t50 -120t-51 -121t-123 -49zM199 -299q-95 0 -163.5 53t-68.5 133q0 63 41.5 105.5t102.5 42.5q90 0 157 -70q18 -18 27 -18h17q7 4 7 76v43v677q-3 0 -12 2t-14 3q-52 6 -85.5 39t-33.5 73
q0 39 34.5 71.5t84.5 41.5q85 16 190 78q41 23 68 8.5t27 -60.5v-800q0 -272 -111 -389q-103 -109 -268 -109z" />
    <glyph glyph-name="k" unicode="k" horiz-adv-x="1126" 
d="M479 -76h-407q-37 0 -57.5 20.5t-20.5 57.5v64q0 37 20.5 57t57.5 20h78v7v1146q0 2 3 3h-2q-6 0 -12 -1q-56 -3 -93.5 31t-37.5 78q0 39 32.5 71.5t82.5 41.5q85 12 190 69q41 23 68 9t27 -60v-889l190 168q-57 0 -57 76v63q0 37 19.5 57.5t55.5 20.5h441
q37 0 57.5 -20.5t20.5 -57.5v-63q0 -37 -20.5 -56.5t-57.5 -19.5h-64q-87 0 -153 -72l-154 -135l293 -401q5 -7 13 -19.5t11 -16t9 -11t9.5 -9t9.5 -5t14 -4t17 -1t23 -0.5q84 -3 84 -77v-64q0 -37 -20 -57.5t-57 -20.5h-414q-37 0 -56.5 20.5t-19.5 57.5v64q0 77 49 77h51
l-210 297l-84 -73v-217v-7h71q37 0 57.5 -20t20.5 -57v-64q0 -37 -20.5 -57.5t-57.5 -20.5z" />
    <glyph glyph-name="l" unicode="l" horiz-adv-x="731" 
d="M610 -76h-475q-37 0 -56.5 20.5t-19.5 57.5v64q0 37 19.5 57t56.5 20h101q4 0 7 -7q1 -2 1 1v3v16v1124q-16 4 -25 4q-52 6 -84.5 39.5t-32.5 73.5t32.5 71.5t82.5 40.5q81 15 191 82q41 23 67.5 10t26.5 -59v-1386q0 -4 -1 -8t-1 -5h110q37 0 57.5 -20t20.5 -57v-64
q0 -37 -20.5 -57.5t-57.5 -20.5z" />
    <glyph glyph-name="m" unicode="m" horiz-adv-x="1593" 
d="M1452 143h70q37 0 57 -20t20 -57v-64q0 -34 -21 -55t-52 -23h-352q-32 0 -55 21.5t-23 56.5v64q0 37 20.5 57t57.5 20h20v545q0 69 -25 106t-69 37q-51 0 -104 -39.5t-68 -89.5v-559h20q37 0 57.5 -20t20.5 -57v-64q0 -35 -23 -56.5t-55 -21.5h-299q-32 0 -55 21.5
t-23 56.5v64q0 37 20.5 57t57.5 20h21v535q0 153 -103 153q-51 0 -96.5 -42t-58.5 -103v-543h20q37 0 57.5 -20t20.5 -57v-64q0 -35 -23 -56.5t-55 -21.5h-358q-37 0 -57.5 20.5t-20.5 57.5v64q0 37 20.5 57t57.5 20h61h19v607q-2 1 -5.5 1.5t-9 1t-10.5 1.5q-54 6 -89.5 39
t-35.5 73q0 38 35 71t86 42q48 8 121 37q74 27 104 -8l47 -52q97 93 217 93q128 0 220 -99l12 -12q117 111 280 111q146 0 236 -100t90 -261v-545z" />
    <glyph glyph-name="n" unicode="n" horiz-adv-x="1173" 
d="M1022 143h80q37 0 57.5 -20t20.5 -57v-64q0 -37 -20.5 -57.5t-57.5 -20.5h-416q-37 0 -56.5 20.5t-19.5 57.5v64q0 37 19.5 57t56.5 20h74q1 0 2 -1t2 -1v553q0 66 -33.5 101.5t-95.5 35.5q-70 0 -139.5 -48t-92.5 -111v-529h66q37 0 57.5 -20t20.5 -57v-64
q0 -37 -20.5 -57.5t-57.5 -20.5h-397q-37 0 -57.5 20.5t-20.5 57.5v64q0 37 20.5 57t57.5 20h61q2 0 6 -1t6 -1v594l-20 4q-56 10 -89.5 41.5t-33.5 71.5q0 38 33.5 70t83.5 43q42 10 114 43q61 33 107 0l63 -47q116 88 279 88q158 0 249 -95.5t91 -259.5v-551z" />
    <glyph glyph-name="o" unicode="o" horiz-adv-x="1177" 
d="M594 -119q-238 0 -389.5 165.5t-151.5 422.5q0 173 70 312.5t194 218.5t277 79q235 0 382.5 -170t147.5 -440q0 -256 -149 -422t-381 -166zM594 102q121 0 190.5 98t69.5 269q0 213 -76 305q-74 86 -184 86q-116 0 -197 -90q-75 -84 -75 -301q0 -171 72 -269t200 -98z
" />
    <glyph glyph-name="p" unicode="p" horiz-adv-x="1198" 
d="M483 -297h-405q-37 0 -56.5 20.5t-19.5 57.5v63q0 76 74 76h74v821q-3 0 -6.5 0.5t-9.5 1.5t-11 2q-54 6 -88.5 39.5t-34.5 73.5q0 39 34 71t85 44q52 13 121 45q59 27 106 -4l62 -37q102 80 264 80q201 0 337 -148t136 -366q0 -237 -143.5 -385t-372.5 -148
q-121 0 -221 53v-143h75q37 0 57.5 -19.5t20.5 -56.5v-63q0 -37 -20.5 -57.5t-57.5 -20.5zM629 227q88 0 153 56q107 88 107 260q0 129 -69.5 213t-178.5 84q-69 0 -141.5 -37.5t-91.5 -81.5v-385q23 -46 86.5 -77.5t134.5 -31.5z" />
    <glyph glyph-name="q" unicode="q" horiz-adv-x="1173" 
d="M1133 -297h-400q-37 0 -56.5 20.5t-19.5 57.5v63q0 76 76 76h78v143q-115 -53 -242 -53q-225 0 -370.5 143t-145.5 365q0 230 155.5 384.5t387.5 154.5q144 0 266 -76l6 18q21 62 88 62h35q37 0 57.5 -20.5t20.5 -57.5v-1063h64q37 0 57 -19.5t20 -56.5v-63
q0 -37 -20 -57.5t-57 -20.5zM602 227q56 0 115.5 28.5t93.5 70.5v415q-34 46 -90.5 72.5t-124.5 26.5q-113 0 -199 -87t-86 -202q0 -145 81.5 -234.5t209.5 -89.5z" />
    <glyph glyph-name="r" unicode="r" horiz-adv-x="913" 
d="M492 -76h-416q-37 0 -57.5 18.5t-20.5 53.5v14q0 52 39 94q43 40 104 37l28 1q0 1 -2 2q-7 3 -7 6v587q-15 7 -31 11q-119 31 -119 116q0 39 32.5 71.5t82.5 41.5q57 9 127 39q57 23 104 -8q21 -13 32 -21t20.5 -23t9.5 -32v-12q100 129 246 129q109 0 172 -50.5
t63 -144.5q0 -61 -41.5 -99t-105.5 -38q-90 0 -144 69q-6 9 -22 9q-41 0 -85.5 -45t-82.5 -127v-473l-2 -7h76q37 0 57 -20t20 -57v-64q0 -37 -20 -57.5t-57 -20.5z" />
    <glyph glyph-name="s" unicode="s" horiz-adv-x="989" 
d="M543 -113q-112 0 -242 68q-32 -37 -88 -37q-68 0 -86 66l-84 278q-21 74 51 96l31 9q63 20 98 -45q43 -79 88 -121q112 -95 232 -95q65 0 105 31t40 80q0 62 -38 96.5t-140 63.5q-270 63 -348 153q-78 81 -78 215q0 131 109.5 226.5t261.5 95.5q100 0 200 -43
q31 31 82 31q52 0 76 -62l107 -274q15 -40 4 -64t-45 -24h-25q-51 0 -84 16q-27 17 -61 62q-54 76 -113 108.5t-141 32.5q-58 0 -90.5 -28.5t-32.5 -76.5q0 -40 41 -63t172 -51l4 -2q68 -17 117.5 -35t103.5 -50t88 -71.5t56 -101t22 -138.5q0 -146 -113.5 -246t-279.5 -100
z" />
    <glyph glyph-name="t" unicode="t" horiz-adv-x="821" 
d="M471 -90q-124 0 -200 71t-76 212v618h-111q-73 0 -76 70l-2 69q-2 32 25 51.5t106 30.5q43 6 59.5 23.5t20.5 66.5l23 256q3 84 77 84h58q37 0 57.5 -20.5t20.5 -57.5v-356h206q37 0 57.5 -20.5t20.5 -57.5v-63q0 -37 -20.5 -56.5t-57.5 -19.5h-206v-590q0 -78 61 -78
q38 0 94 56q40 40 94 43q39 3 70 -26t33 -69q1 -27 -8 -45.5t-31 -48.5q-47 -64 -128.5 -103.5t-166.5 -39.5z" />
    <glyph glyph-name="u" unicode="u" horiz-adv-x="1165" 
d="M473 -90q-149 0 -234 94.5t-85 257.5v481q-4 0 -13 1t-14 1q-52 6 -86.5 39.5t-34.5 73.5q0 39 34.5 71.5t84.5 41.5q73 14 192 78q41 23 68 8.5t27 -60.5v-669q0 -103 21.5 -145t74.5 -42q76 0 188 95l35 38v471l-47 5q-51 4 -81 34t-30 70q0 42 37 74t92 43
q74 14 193 78q41 23 67.5 8.5t26.5 -60.5v-854h12h93q37 0 57 -20t20 -57v-64q0 -37 -20 -57.5t-57 -20.5h-287q-76 0 -76 35v33q-125 -82 -258 -82z" />
    <glyph glyph-name="v" unicode="v" horiz-adv-x="1159" 
d="M590 -90h-10q-64 0 -88 61l-310 805q-11 26 -18.5 32.5t-28.5 6.5h-67q-37 0 -57.5 19.5t-20.5 56.5v63q0 37 20.5 57.5t57.5 20.5h417q78 0 78 -71v-15q0 -52 -39 -94q-39 -36 -63 -39q-17 0 -23 -2l164 -420l168 424h-70q-67 0 -67 76v63q0 37 19.5 57.5t56.5 20.5h378
q78 0 78 -71v-15q0 -52 -39 -94q-35 -33 -100 -39q-7 0 -11.5 -1t-8 -2.5t-5.5 -2.5t-4 -5t-2.5 -5.5l-2.5 -7.5l-3 -9l-311 -809q-24 -61 -88 -61z" />
    <glyph glyph-name="w" unicode="w" horiz-adv-x="1601" 
d="M1085 -90h-18q-67 0 -88 61l-188 506l-148 -487q-18 -66 -86 -66h-14q-64 0 -88 62l-328 825q-6 2 -49 2q-84 3 -84 76v65q0 37 20.5 57.5t57.5 20.5h352q78 0 78 -71v-15q0 -52 -39 -94q-39 -36 -53 -39h-15l152 -393l119 395h-52q-75 0 -75 76v63q0 37 19.5 57.5
t55.5 20.5h353q77 0 77 -71v-15q0 -53 -38 -94q-39 -36 -56 -39h-16l147 -401l133 403h-59q-57 0 -57 76v63q0 37 19.5 57.5t56.5 20.5h348q77 0 77 -71v-15q0 -53 -38 -94q-40 -37 -82 -37q-33 0 -37 -2l-271 -840q-18 -63 -86 -63z" />
    <glyph glyph-name="x" unicode="x" horiz-adv-x="1175" 
d="M473 -76h-399q-37 0 -57.5 20.5t-20.5 57.5v64q0 37 20.5 57t57.5 20h65q64 0 92 41l224 312l-217 299q-2 3 -19 12l-51 8h-53q-76 0 -76 76v63q0 37 19.5 57.5t56.5 20.5h401q37 0 57.5 -20.5t20.5 -57.5v-63q0 -76 -35 -76h-33l80 -110l80 110q-6 4 -15.5 11.5
t-25.5 29t-16 41.5v57q0 37 19.5 57.5t56.5 20.5h358q37 0 57.5 -20.5t20.5 -57.5v-63q0 -37 -20.5 -56.5t-57.5 -19.5h-64q-39 0 -49 -4t-20 -20l-195 -267l246 -336q17 -27 39.5 -36t71.5 -9q84 -3 84 -75v-66q0 -37 -20.5 -57.5t-57.5 -20.5h-391q-37 0 -56.5 20.5
t-19.5 57.5v64q0 77 39 77h41l-127 170l-123 -170h12q37 0 57.5 -20t20.5 -57v-64q0 -37 -20.5 -57.5t-57.5 -20.5z" />
    <glyph glyph-name="y" unicode="y" horiz-adv-x="1261" 
d="M336 -297q-94 0 -157.5 50t-63.5 130q0 62 39.5 104t99.5 42q55 0 119 -43l16 -11q53 0 86 64l14 29l-327 710q-2 5 -5.5 14.5t-5.5 11t-6 6t-12.5 4.5t-19 0.5t-31.5 0.5q-88 3 -88 78v63q0 37 20.5 57.5t57.5 20.5h385q37 0 57.5 -20.5t20.5 -57.5v-63q0 -36 -15 -56
t-41 -20h-53l205 -450l211 450h-64q-61 0 -61 76v63q0 37 19.5 57.5t56.5 20.5h399q37 0 57.5 -20.5t20.5 -57.5v-63q0 -37 -20.5 -56.5t-57.5 -19.5h-76q-51 0 -57 -29l-373 -798q-64 -136 -154.5 -211.5t-195.5 -75.5z" />
    <glyph glyph-name="z" unicode="z" horiz-adv-x="980" 
d="M752 -76h-658q-76 0 -76 72v16q0 52 31 94l535 709h-105q-69 0 -107 -24.5t-98 -108.5q-34 -51 -94 -51h-53q-43 0 -59 24t2 64l112 254q26 59 90 59h619q37 0 57.5 -18t20.5 -51v-17q0 -50 -33 -94l-537 -709h80q93 0 148.5 39.5t134.5 165.5q32 55 92 55h53
q43 0 60 -25t2 -65l-129 -327q-24 -62 -88 -62z" />
    <glyph glyph-name="braceleft" unicode="{" horiz-adv-x="997" 
d="M700 -270q-112 49 -156 167t-44 355q0 107 -17.5 170t-54.5 103t-111 81q-40 23 -39.5 46t41.5 42q60 27 88.5 45t51.5 55.5t29 90.5t6 149q0 298 53 393q55 93 151 138q52 25 103 -13l6 -4q47 -36 47 -55t-23 -55q-7 -12 -27.5 -31.5t-29.5 -34.5q-23 -40 -20 -98
l6 -113v-127q0 -149 -33.5 -241.5t-110.5 -151.5q81 -68 115.5 -153.5t32.5 -211.5l-6 -88l-4 -163q0 -73 12 -97q9 -18 32 -37t31 -30q25 -39 25 -56q0 -19 -47 -55l-4 -4q-51 -39 -103 -16z" />
    <glyph glyph-name="bar" unicode="|" horiz-adv-x="618" 
d="M352 -301h-88q-37 0 -56.5 20.5t-19.5 57.5v1720q0 37 19.5 57.5t56.5 20.5h88q37 0 57.5 -20.5t20.5 -57.5v-1720q0 -37 -20.5 -57.5t-57.5 -20.5z" />
    <glyph glyph-name="braceright" unicode="}" horiz-adv-x="995" 
d="M295 -264q-51 -22 -102 16l-5 4q-45 34 -45 56q0 20 25 57q6 9 29.5 29t31.5 39q9 21 9 73l-7 144v137q0 124 34 206.5t114 147.5q-145 112 -143 352l6 107l4 143q0 89 -29 131q-9 14 -28.5 33.5t-26.5 32.5q-19 34 -19 53q0 20 50 53l8 4q51 33 90 13q63 -34 102.5 -73
t64.5 -97.5t34.5 -133.5t9.5 -186q0 -59 0.5 -97t5 -74.5t6.5 -56t14.5 -41.5t19 -31.5t29 -25t36.5 -22.5t49 -24l6 -3q43 -20 43 -47.5t-41 -50.5q-72 -42 -107 -82t-50 -101.5t-15 -170.5q0 -225 -47 -345t-156 -169z" />
    <glyph glyph-name="asciitilde" unicode="~" horiz-adv-x="1048" 
d="M711 295q-89 0 -234 119q-87 69 -131 69q-67 0 -176 -71q-53 -39 -107 -11l-12 7q-57 26 -57 65q0 41 41 82q186 186 327 186q103 0 254 -123q34 -29 64 -47t41 -18q75 0 153 63q52 40 107 19l14 -6q60 -25 60 -66q0 -40 -37 -82q-77 -86 -159 -136t-148 -50z" />
    <glyph glyph-name="cent" unicode="&#xa2;" 
d="M821 -104l-69 20q-73 22 -52 94l70 246q-126 75 -200 218.5t-74 313.5q0 271 170 443.5t438 171.5l-12 2l59 207q22 72 96 51l68 -21q72 -22 51 -96l-53 -188q101 -48 168 -138.5t67 -185.5q0 -76 -40.5 -124t-108.5 -48q-65 0 -110 41t-42 103l6 75l9 54l-11 10
l-209 -742h2q189 0 306 201q28 51 80 68t79 2t41 -66q17 -52 -12 -102q-98 -164 -217.5 -241t-276.5 -77q-41 0 -61 2l-68 -241q-21 -75 -94 -53zM840 512l190 672q-90 -14 -166 -90q-97 -103 -100 -306q3 -175 76 -276z" />
    <glyph glyph-name="cent" unicode="&#xffe0;" 
d="M821 -104l-69 20q-73 22 -52 94l70 246q-126 75 -200 218.5t-74 313.5q0 271 170 443.5t438 171.5l-12 2l59 207q22 72 96 51l68 -21q72 -22 51 -96l-53 -188q101 -48 168 -138.5t67 -185.5q0 -76 -40.5 -124t-108.5 -48q-65 0 -110 41t-42 103l6 75l9 54l-11 10
l-209 -742h2q189 0 306 201q28 51 80 68t79 2t41 -66q17 -52 -12 -102q-98 -164 -217.5 -241t-276.5 -77q-41 0 -61 2l-68 -241q-21 -75 -94 -53zM840 512l190 672q-90 -14 -166 -90q-97 -103 -100 -306q3 -175 76 -276z" />
    <glyph glyph-name="sterling" unicode="&#xa3;" 
d="M532 -70q-169 0 -272.5 87t-103.5 229q0 135 103.5 228t252.5 93q100 0 209 -32l10 -3q-6 61 -20 142h-445q-76 0 -76 76v57q0 37 19.5 57.5t56.5 20.5h393q-55 204 -55 309q0 231 164.5 360t456.5 129q150 0 279 -50t204.5 -136.5t75.5 -189.5q0 -100 -59 -172t-144 -72
q-54 0 -93.5 41.5t-33.5 95.5l25 98l2 9q0 61 -78.5 112t-177.5 51q-184 0 -267 -71q-84 -78 -84 -164q0 -95 48 -262l24 -88h449q37 0 57.5 -20.5t20.5 -57.5v-57q0 -37 -20.5 -56.5t-57.5 -19.5h-406q17 -107 17 -176q0 -43 -7 -101l25 -12q167 -99 272 -139.5t191 -40.5
q170 0 248 151q35 60 82 60q53 0 88 -49l4 -5q36 -48 14 -104q-62 -149 -180.5 -238.5t-255.5 -89.5q-128 0 -257.5 54.5t-293.5 175.5q-57 -111 -161 -170.5t-243 -59.5zM532 145q57 0 105 44t74 122q-85 45 -199 45q-65 0 -104 -31t-39 -79t41.5 -74.5t121.5 -26.5z" />
    <glyph glyph-name="sterling" unicode="&#xffe1;" 
d="M532 -70q-169 0 -272.5 87t-103.5 229q0 135 103.5 228t252.5 93q100 0 209 -32l10 -3q-6 61 -20 142h-445q-76 0 -76 76v57q0 37 19.5 57.5t56.5 20.5h393q-55 204 -55 309q0 231 164.5 360t456.5 129q150 0 279 -50t204.5 -136.5t75.5 -189.5q0 -100 -59 -172t-144 -72
q-54 0 -93.5 41.5t-33.5 95.5l25 98l2 9q0 61 -78.5 112t-177.5 51q-184 0 -267 -71q-84 -78 -84 -164q0 -95 48 -262l24 -88h449q37 0 57.5 -20.5t20.5 -57.5v-57q0 -37 -20.5 -56.5t-57.5 -19.5h-406q17 -107 17 -176q0 -43 -7 -101l25 -12q167 -99 272 -139.5t191 -40.5
q170 0 248 151q35 60 82 60q53 0 88 -49l4 -5q36 -48 14 -104q-62 -149 -180.5 -238.5t-255.5 -89.5q-128 0 -257.5 54.5t-293.5 175.5q-57 -111 -161 -170.5t-243 -59.5zM532 145q57 0 105 44t74 122q-85 45 -199 45q-65 0 -104 -31t-39 -79t41.5 -74.5t121.5 -26.5z" />
    <glyph glyph-name="yen" unicode="&#xa5;" 
d="M1290 -70h-450q-76 0 -76 70v12q0 54 37 94q39 36 102 39q14 0 20 1.5t7.5 2.5t0.5 8.5t-1 10.5v426h-617q-75 0 -75 76v57q0 37 19.5 57.5t55.5 20.5h496l-121 188h-375q-75 0 -75 76v57q0 37 19.5 57.5t55.5 20.5h242l-115 180q-43 63 -60.5 74.5t-68.5 11.5
q-38 -1 -58 19t-20 59v58q0 37 19.5 57t56.5 20h436q37 0 57.5 -18t20.5 -51v-12q0 -53 -39 -95q-39 -36 -59 -39q-8 0 -20 -4l169 -260h404l147 264h-6q-78 3 -78 76v62q0 37 19.5 57t56.5 20h363q37 0 57.5 -20t20.5 -57v-60q0 -36 -22 -56t-62 -22q-67 0 -85 -7.5
t-40 -41.5l-121 -215h248q37 0 57 -20.5t20 -57.5v-57q0 -37 -20 -56.5t-57 -19.5h-367l-106 -188h473q37 0 57 -20.5t20 -57.5v-57q0 -37 -20 -56.5t-57 -19.5h-574v-426v-7q0 -17 3 -19.5t23 -0.5q29 2 54 2q41 1 63.5 -19.5t22.5 -57.5v-58q0 -37 -20.5 -57.5
t-57.5 -20.5zM1014 993l78 -119l65 119h-143z" />
    <glyph glyph-name="yen" unicode="&#xffe5;" 
d="M1290 -70h-450q-76 0 -76 70v12q0 54 37 94q39 36 102 39q14 0 20 1.5t7.5 2.5t0.5 8.5t-1 10.5v426h-617q-75 0 -75 76v57q0 37 19.5 57.5t55.5 20.5h496l-121 188h-375q-75 0 -75 76v57q0 37 19.5 57.5t55.5 20.5h242l-115 180q-43 63 -60.5 74.5t-68.5 11.5
q-38 -1 -58 19t-20 59v58q0 37 19.5 57t56.5 20h436q37 0 57.5 -18t20.5 -51v-12q0 -53 -39 -95q-39 -36 -59 -39q-8 0 -20 -4l169 -260h404l147 264h-6q-78 3 -78 76v62q0 37 19.5 57t56.5 20h363q37 0 57.5 -20t20.5 -57v-60q0 -36 -22 -56t-62 -22q-67 0 -85 -7.5
t-40 -41.5l-121 -215h248q37 0 57 -20.5t20 -57.5v-57q0 -37 -20 -56.5t-57 -19.5h-367l-106 -188h473q37 0 57 -20.5t20 -57.5v-57q0 -37 -20 -56.5t-57 -19.5h-574v-426v-7q0 -17 3 -19.5t23 -0.5q29 2 54 2q41 1 63.5 -19.5t22.5 -57.5v-58q0 -37 -20.5 -57.5
t-57.5 -20.5zM1014 993l78 -119l65 119h-143z" />
    <glyph glyph-name="section" unicode="&#xa7;" 
d="M1059 -70q-317 0 -445 119q-102 99 -102 230q0 58 39 100.5t94 42.5q56 0 96.5 -42.5t40.5 -100.5t76 -96t201 -38q105 0 175.5 34t70.5 79q0 17 -17 37q-9 14 -70.5 39t-148.5 49q-355 102 -453 205q-100 103 -100 248q0 166 129 270q-127 108 -127 246q0 157 142.5 244
t390.5 87q298 0 424 -114q116 -103 116 -238q0 -56 -40 -97.5t-95 -41.5q-58 0 -95.5 39.5t-37.5 99.5q0 55 -80 97t-192 42q-111 0 -180.5 -34.5t-69.5 -83.5q0 -42 60.5 -72t221.5 -63q288 -60 402 -177q106 -106 106 -229q0 -174 -178 -276l14 8q158 -100 158 -285
q0 -156 -139 -242t-387 -86zM1122 657q50 5 125.5 56t75.5 80q0 24 -29 57q-48 57 -268 104l-113 29q-67 -13 -97 -43.5t-30 -83.5q0 -25 8 -43t29 -41q45 -45 299 -115z" />
    <glyph glyph-name="copyright" unicode="&#xa9;" 
d="M1061 76q-194 0 -353 91t-250 250t-91 353q0 188 93.5 348t253.5 253t347 93q127 0 259.5 -54.5t223.5 -143.5q92 -78 152.5 -218t60.5 -278q0 -143 -55 -271.5t-148 -221t-222 -147t-271 -54.5zM1061 274q207 0 351 143.5t144 352.5q0 168 -110 307l12 -151
q3 -78 -49 -78h-2q-55 0 -90 26q-29 19 -55 76q-54 107 -179 107q-99 0 -161 -80q-45 -62 -45 -191q0 -284 215 -284q112 0 178 63q45 42 86 51q51 11 63 5q15 -11 25 -62q12 -60 -23 -100q-134 -158 -358 -158q-207 0 -343 131t-136 330q0 204 147 341t365 136l73 -6
q23 -5 54 -14q8 0 47 -13l6 8q-104 52 -215 52q-135 0 -249 -66.5t-180.5 -180.5t-66.5 -249q0 -211 142.5 -353.5t353.5 -142.5z" />
    <glyph glyph-name="macron" unicode="&#xaf;" 
d="M2089 1665h-2048q-37 0 -57.5 19.5t-20.5 56.5v59q0 37 20.5 57.5t57.5 20.5h2048q37 0 57.5 -20.5t20.5 -57.5v-59q0 -37 -20.5 -56.5t-57.5 -19.5z" />
    <glyph glyph-name="macron" unicode="&#x203e;" 
d="M2089 1665h-2048q-37 0 -57.5 19.5t-20.5 56.5v59q0 37 20.5 57.5t57.5 20.5h2048q37 0 57.5 -20.5t20.5 -57.5v-59q0 -37 -20.5 -56.5t-57.5 -19.5z" />
    <glyph glyph-name="macron" unicode="&#x304;" 
d="M2089 1665h-2048q-37 0 -57.5 19.5t-20.5 56.5v59q0 37 20.5 57.5t57.5 20.5h2048q37 0 57.5 -20.5t20.5 -57.5v-59q0 -37 -20.5 -56.5t-57.5 -19.5z" />
    <glyph glyph-name="plusminus" unicode="&#xb1;" 
d="M1784 23h-1413q-76 0 -76 75v95q0 37 19.5 57t56.5 20h585v537h-585q-76 0 -76 76v94q0 37 19.5 57.5t56.5 20.5h585v479q0 37 19.5 57.5t56.5 20.5h94q37 0 57.5 -20.5t20.5 -57.5v-479h580q37 0 57.5 -20.5t20.5 -57.5v-94q0 -37 -20.5 -56.5t-57.5 -19.5h-580v-537
h580q37 0 57.5 -20t20.5 -57v-95q0 -36 -20.5 -55.5t-57.5 -19.5z" />
    <glyph glyph-name="periodcentered" unicode="&#xb7;" 
d="M1057 578q-79 0 -134 58t-55 140q0 87 53 144t136 57q76 0 132 -59.5t56 -141.5q0 -79 -56.5 -138.5t-131.5 -59.5z" />
    <glyph glyph-name="Agrave" unicode="&#xc0;" horiz-adv-x="1718" 
d="M1044 1735l-616 137q-57 14 -92 55t-35 98q0 31 10 58q18 50 57 80t91 30q33 0 69 -18l545 -260q57 -26 57 -90v-21q0 -41 -23 -59t-63 -10zM612 -76h-526q-76 0 -76 72v14q0 54 37 94q39 36 96 39q62 3 82 23t51 100l461 1207q19 51 68 73l47 23l33 16l18 8
q74 31 101 -43l489 -1372q12 -35 57 -35h82q37 0 57.5 -20t20.5 -57v-64q0 -37 -20.5 -57.5t-57.5 -20.5h-530q-37 0 -56.5 20.5t-19.5 57.5v64q0 37 19.5 57t56.5 20h59q62 0 63 1q-1 -2 -1 6t-11 40l-90 252h-538l-88 -233q-15 -41 -15 -59v-4t10 -2t33 -1h88
q37 0 57.5 -20t20.5 -57v-64q0 -37 -20.5 -57.5t-57.5 -20.5zM864 1176l-198 -517h378z" />
    <glyph glyph-name="Aacute" unicode="&#xc1;" horiz-adv-x="1718" 
d="M1352 1872l-617 -137q-40 -8 -63 10t-23 59v21q0 63 58 90l544 260q36 18 70 18q52 0 90.5 -30t56.5 -80q11 -29 11 -58q0 -57 -35 -98t-92 -55zM612 -76h-526q-76 0 -76 72v14q0 54 37 94q39 36 96 39q62 3 82 23t51 100l461 1207q19 51 68 73l47 23l33 16l18 8
q74 31 101 -43l489 -1372q12 -35 57 -35h82q37 0 57.5 -20t20.5 -57v-64q0 -37 -20.5 -57.5t-57.5 -20.5h-530q-37 0 -56.5 20.5t-19.5 57.5v64q0 37 19.5 57t56.5 20h59q62 0 63 1q-1 -2 -1 6t-11 40l-90 252h-538l-88 -233q-15 -41 -15 -59v-4t10 -2t33 -1h88
q37 0 57.5 -20t20.5 -57v-64q0 -37 -20.5 -57.5t-57.5 -20.5zM864 1176l-198 -517h378z" />
    <glyph glyph-name="Acircumflex" unicode="&#xc2;" horiz-adv-x="1718" 
d="M496 1841l258 377q23 33 58.5 51.5t72.5 16.5q83 3 131 -68l258 -377q24 -34 16.5 -62.5t-45.5 -45.5l-18 -9q-68 -28 -107 17l-235 256l-236 -256q-39 -44 -106 -17l-19 9q-38 17 -45 45.5t17 62.5zM10 -4v14q0 54 37 94q39 36 96 39q62 3 82 23t51 100l461 1207
q19 51 68 73l47 23l33 16l18 8q74 31 101 -43l489 -1372q12 -35 57 -35h82q37 0 57.5 -20t20.5 -57v-64q0 -37 -20.5 -57.5t-57.5 -20.5h-530q-37 0 -56.5 20.5t-19.5 57.5v64q0 37 19.5 57t56.5 20h59q62 0 63 1q-1 -2 -1 6t-11 40l-90 252h-538l-88 -233q-15 -41 -15 -59
v-4t10 -2t33 -1h88q37 0 57.5 -20t20.5 -57v-64q0 -37 -20.5 -57.5t-57.5 -20.5h-526q-76 0 -76 72zM864 1176l-198 -517h378z" />
    <glyph glyph-name="Atilde" unicode="&#xc3;" horiz-adv-x="1718" 
d="M1124 1663q-88 0 -233 119q-87 69 -131 69q-67 0 -176 -71q-53 -39 -107 -11l-12 7q-57 26 -57 65q0 41 41 82q186 186 327 186q105 0 254 -122q34 -30 64.5 -48t40.5 -18q74 0 153 64q51 40 107 18l14 -6q59 -24 59 -66q0 -41 -36 -82q-76 -86 -159 -136t-149 -50z
M612 -76h-526q-76 0 -76 72v14q0 54 37 94q39 36 96 39q62 3 82 23t51 100l461 1207q19 51 68 73l47 23l33 16l18 8q74 31 101 -43l489 -1372q12 -35 57 -35h82q37 0 57.5 -20t20.5 -57v-64q0 -37 -20.5 -57.5t-57.5 -20.5h-530q-37 0 -56.5 20.5t-19.5 57.5v64
q0 37 19.5 57t56.5 20h59q62 0 63 1q-1 -2 -1 6t-11 40l-90 252h-538l-88 -233q-15 -41 -15 -59v-4t10 -2t33 -1h88q37 0 57.5 -20t20.5 -57v-64q0 -37 -20.5 -57.5t-57.5 -20.5zM864 1176l-198 -517h378z" />
    <glyph glyph-name="Adieresis" unicode="&#xc4;" horiz-adv-x="1718" 
d="M612 -76h-526q-76 0 -76 72v14q0 54 37 94q39 36 96 39q62 3 82 23t51 100l461 1207q19 51 68 73l47 23l33 16l18 8q74 31 101 -43l489 -1372q12 -35 57 -35h82q37 0 57.5 -20t20.5 -57v-64q0 -37 -20.5 -57.5t-57.5 -20.5h-530q-37 0 -56.5 20.5t-19.5 57.5v64
q0 37 19.5 57t56.5 20h59q62 0 63 1q-1 -2 -1 6t-11 40l-90 252h-538l-88 -233q-15 -41 -15 -59v-4t10 -2t33 -1h88q37 0 57.5 -20t20.5 -57v-64q0 -37 -20.5 -57.5t-57.5 -20.5zM379 1229q-71 0 -117.5 49.5t-46.5 122.5q0 74 46 121t118 47q75 0 124.5 -48t49.5 -120
q0 -69 -52 -120.5t-122 -51.5zM1382 1229q-71 0 -117 49.5t-46 122.5q0 74 45.5 121t117.5 47q75 0 124.5 -48t49.5 -120q0 -69 -52 -120.5t-122 -51.5zM864 1176l-198 -517h378z" />
    <glyph glyph-name="Aring" unicode="&#xc5;" horiz-adv-x="1718" 
d="M1550 143h82q37 0 57.5 -20t20.5 -57v-64q0 -37 -20.5 -57.5t-57.5 -20.5h-530q-37 0 -56.5 20.5t-19.5 57.5v64q0 37 19.5 57t56.5 20h59q62 0 63 1q-1 -2 -1 6t-11 40l-90 252h-538l-88 -233q-15 -41 -15 -59v-4t10 -2t33 -1h88q37 0 57.5 -20t20.5 -57v-64
q0 -37 -20.5 -57.5t-57.5 -20.5h-526q-76 0 -76 72v14q0 54 37 94q39 36 96 39q62 3 82 23t51 100l461 1207l4 8q-83 42 -131.5 120.5t-48.5 174.5q0 138 94.5 232.5t231.5 94.5t233.5 -95.5t96.5 -231.5q0 -97 -51.5 -177t-137.5 -120l465 -1301q12 -35 57 -35zM887 1950
q-73 0 -122.5 -50t-49.5 -124t49.5 -124t122.5 -50q72 0 124 51t52 123t-51.5 123t-124.5 51zM864 1176l-198 -517h378z" />
    <glyph glyph-name="AE" unicode="&#xc6;" horiz-adv-x="2289" 
d="M2146 465h56q44 0 60 -25.5t-3 -66.5l-178 -389q-26 -60 -90 -60h-889q-37 0 -56.5 20.5t-19.5 57.5v64q0 37 19.5 57t56.5 20h59q62 0 63 1q-1 -2 -1 6t-11 40l-90 252h-538l-88 -233q-15 -41 -15 -59v-4t10 -2t33 -1h88q37 0 57.5 -20t20.5 -57v-64q0 -37 -20.5 -57.5
t-57.5 -20.5h-526q-76 0 -76 72v14q0 54 37 94q39 36 96 39q62 3 82 23t51 100l461 1207q19 51 68 73l47 23l33 16l18 8q59 24 88 -18h1004q65 0 86 -64l129 -399q12 -40 -1.5 -63t-49.5 -23h-25q-52 0 -88 23q-35 23 -57 75q-56 133 -116 183.5t-155 50.5h-645l172 -486
h297q29 0 43 0.5t29.5 6.5t21 15t10.5 29.5t6 45.5t1 69q2 40 22 62t56 22h51q37 0 57.5 -20.5t20.5 -57.5v-563q0 -75 -66 -75h-8q-55 0 -94 36q-36 39 -39 99q-1 44 -4.5 66t-18.5 33.5t-31 13t-57 1.5h-219l170 -477q12 -35 57 -35h142q54 0 103 18t83 41.5t70.5 65
t56 70.5t49.5 76q29 51 92 51zM864 1176l-198 -517h378z" />
    <glyph glyph-name="Ccedilla" unicode="&#xc7;" horiz-adv-x="1492" 
d="M1407 442q14 -52 -10 -102q-111 -205 -232 -303.5t-291 -120.5q-18 -25 54 -92q4 -5 18.5 -18t36 -33t33.5 -31q18 -17 27.5 -42.5t7.5 -51.5t-20 -49.5t-50 -34.5l-313 -107q-4 -1 -20 -6.5t-28 -8.5t-22 -3q-116 0 -147 90q-11 29 -11 57q0 56 33 84.5t94 28.5l269 2
q-82 52 -127.5 102t-46.5 115q-263 40 -431 272.5t-168 561.5q0 368 218 612q201 227 522 227q127 0 305 -90l12 8q42 27 97 27t73 -66l105 -372q10 -40 -4.5 -63t-49.5 -23h-26q-55 0 -86 20q-32 18 -58 66q-142 274 -368 274q-134 0 -241.5 -76t-167.5 -211t-60 -303
q0 -298 130.5 -470.5t358.5 -172.5q109 0 201 72.5t178 228.5q28 51 80 68q57 15 82 0q26 -15 43 -66z" />
    <glyph glyph-name="Egrave" unicode="&#xc8;" horiz-adv-x="1505" 
d="M963 1735l-617 137q-57 14 -92 55t-35 98q0 31 10 58q18 50 57 80t91 30q33 0 69 -18l545 -260q58 -27 58 -90v-21q0 -41 -23 -59t-63 -10zM1206 -76h-1104q-36 0 -55.5 20.5t-19.5 57.5v64q0 77 75 77h105q22 0 22 37v1092q0 40 -10 63t-22 23h-95q-75 0 -75 76v63
q0 37 19.5 57.5t55.5 20.5h1108q65 0 86 -64l129 -399q12 -40 -1.5 -63t-49.5 -23h-24q-52 0 -88 23q-36 24 -58 75q-56 133 -115.5 183.5t-154.5 50.5h-424q-25 0 -25 -86v-400h273q22 0 33.5 0.5t25.5 3t20 6t13.5 13t9.5 20t4.5 29.5t3 40t0.5 54q2 40 22 62t56 22h51
q37 0 57.5 -20.5t20.5 -57.5v-563q0 -75 -65 -75h-9q-55 0 -94 36q-36 39 -39 99q-1 44 -4 65.5t-18 33.5t-31 13.5t-57 1.5h-273v-475q0 -23 5.5 -30t21.5 -7h395q45 0 86 11t75.5 33.5t61.5 45t54.5 58.5t44.5 60t41 63q29 51 92 51h55q44 0 60.5 -25.5t-2.5 -66.5
l-179 -389q-26 -60 -90 -60z" />
    <glyph glyph-name="Eacute" unicode="&#xc9;" horiz-adv-x="1505" 
d="M1311 1872l-617 -137q-40 -8 -63 10t-23 59v21q0 63 58 90l544 260q36 18 70 18q52 0 90.5 -30t56.5 -80q11 -29 11 -58q0 -57 -35 -98t-92 -55zM1206 -76h-1104q-36 0 -55.5 20.5t-19.5 57.5v64q0 77 75 77h105q22 0 22 37v1092q0 40 -10 63t-22 23h-95q-75 0 -75 76v63
q0 37 19.5 57.5t55.5 20.5h1108q68 0 86 -64l129 -399q12 -40 -1.5 -63t-49.5 -23h-24q-52 0 -88 23q-36 24 -58 75q-56 133 -115.5 183.5t-154.5 50.5h-424q-25 0 -25 -86v-400h273q22 0 33.5 0.5t25.5 3t20 6t13.5 13t9.5 20t4.5 29.5t3 40t0.5 54q2 40 22 62t56 22h51
q37 0 57.5 -20.5t20.5 -57.5v-563q0 -75 -65 -75h-9q-55 0 -94 36q-36 39 -39 99q-1 44 -4 65.5t-18 33.5t-31 13.5t-57 1.5h-273v-475q0 -23 5.5 -30t21.5 -7h395q45 0 86 11t75.5 33.5t61.5 45t54.5 58.5t44.5 60t41 63q29 51 92 51h55q44 0 60.5 -25.5t-2.5 -66.5
l-179 -389q-26 -60 -90 -60z" />
    <glyph glyph-name="Ecircumflex" unicode="&#xca;" horiz-adv-x="1505" 
d="M244 1841l258 377q23 33 58.5 51.5t72.5 16.5q83 3 131 -68l258 -377q24 -34 16.5 -62.5t-45.5 -45.5l-18 -9q-68 -28 -107 17l-235 256l-236 -256q-39 -44 -106 -17l-19 9q-38 17 -45 45.5t17 62.5zM1206 -76h-1104q-36 0 -55.5 20.5t-19.5 57.5v64q0 77 75 77h105
q22 0 22 37v1092q0 40 -10 63t-22 23h-95q-75 0 -75 76v63q0 37 19.5 57.5t55.5 20.5h1108q65 0 86 -64l129 -399q12 -40 -1.5 -63t-49.5 -23h-24q-52 0 -88 23q-36 24 -58 75q-56 133 -115.5 183.5t-154.5 50.5h-424q-25 0 -25 -86v-400h273q22 0 33.5 0.5t25.5 3t20 6
t13.5 13t9.5 20t4.5 29.5t3 40t0.5 54q2 40 22 62t56 22h51q37 0 57.5 -20.5t20.5 -57.5v-563q0 -75 -65 -75h-9q-55 0 -94 36q-36 39 -39 99q-1 44 -4 65.5t-18 33.5t-31 13.5t-57 1.5h-273v-475q0 -23 5.5 -30t21.5 -7h395q45 0 86 11t75.5 33.5t61.5 45t54.5 58.5
t44.5 60t41 63q29 51 92 51h55q44 0 60.5 -25.5t-2.5 -66.5l-179 -389q-26 -60 -90 -60z" />
    <glyph glyph-name="Edieresis" unicode="&#xcb;" horiz-adv-x="1505" 
d="M502 1720q-71 0 -117.5 49.5t-46.5 122.5q0 74 46 121t118 47q75 0 124.5 -48t49.5 -120q0 -69 -52 -120.5t-122 -51.5zM932 1720q-71 0 -117.5 49.5t-46.5 122.5q0 74 46 121t118 47q75 0 124.5 -48t49.5 -120q0 -69 -52 -120.5t-122 -51.5zM1206 -76h-1104
q-36 0 -55.5 20.5t-19.5 57.5v64q0 77 75 77h105q22 0 22 37v1092q0 40 -10 63t-22 23h-95q-75 0 -75 76v63q0 37 19.5 57.5t55.5 20.5h1108q65 0 86 -64l129 -399q12 -40 -1.5 -63t-49.5 -23h-24q-52 0 -88 23q-36 24 -58 75q-56 133 -115.5 183.5t-154.5 50.5h-424
q-25 0 -25 -86v-400h273q22 0 33.5 0.5t25.5 3t20 6t13.5 13t9.5 20t4.5 29.5t3 40t0.5 54q2 40 22 62t56 22h51q37 0 57.5 -20.5t20.5 -57.5v-563q0 -75 -65 -75h-9q-55 0 -94 36q-36 39 -39 99q-1 44 -4 65.5t-18 33.5t-31 13.5t-57 1.5h-273v-475q0 -23 5.5 -30t21.5 -7
h395q45 0 86 11t75.5 33.5t61.5 45t54.5 58.5t44.5 60t41 63q29 51 92 51h55q44 0 60.5 -25.5t-2.5 -66.5l-179 -389q-26 -60 -90 -60z" />
    <glyph glyph-name="Igrave" unicode="&#xcc;" horiz-adv-x="784" 
d="M553 1735l-616 137q-57 14 -92 55t-35 98q0 31 10 58q18 50 56.5 80t90.5 30q34 0 70 -18l545 -260q57 -26 57 -90v-21q0 -41 -23 -59t-63 -10zM684 -76h-582q-36 0 -55.5 20.5t-19.5 57.5v64q0 77 75 77h140q18 0 21 3t3 20v1169q0 4 1 11.5t-0.5 8t-6.5 2t-18 1.5h-140
q-75 0 -75 76v63q0 37 19.5 57.5t55.5 20.5h582q37 0 57.5 -20.5t20.5 -57.5v-63q0 -37 -20.5 -56.5t-57.5 -19.5h-129h-10q-19 0 -22 -1t-1 -7q2 -8 2 -15v-1169v-9t-0.5 -6.5t0.5 -4t1.5 -3t3.5 -1t5.5 0t8.5 0.5h12h129q37 0 57.5 -20t20.5 -57v-64q0 -37 -20.5 -57.5
t-57.5 -20.5z" />
    <glyph glyph-name="Iacute" unicode="&#xcd;" horiz-adv-x="784" 
d="M778 1872l-616 -137q-40 -8 -63 10t-23 59v21q0 64 57 90l545 260q36 18 70 18q52 0 90.5 -30t56.5 -80q10 -27 10 -58q0 -57 -35 -98t-92 -55zM684 -76h-582q-36 0 -55.5 20.5t-19.5 57.5v64q0 77 75 77h140q18 0 21 3t3 20v1169q0 4 1 11.5t-0.5 8t-6.5 2t-18 1.5h-140
q-75 0 -75 76v63q0 37 19.5 57.5t55.5 20.5h582q37 0 57.5 -20.5t20.5 -57.5v-63q0 -37 -20.5 -56.5t-57.5 -19.5h-129h-10q-19 0 -22 -1t-1 -7q2 -8 2 -15v-1169v-9t-0.5 -6.5t0.5 -4t1.5 -3t3.5 -1t5.5 0t8.5 0.5h12h129q37 0 57.5 -20t20.5 -57v-64q0 -37 -20.5 -57.5
t-57.5 -20.5z" />
    <glyph glyph-name="Icircumflex" unicode="&#xce;" horiz-adv-x="784" 
d="M4 1841l258 377q23 33 58.5 51.5t72.5 16.5q83 3 131 -68l258 -377q24 -34 17 -62.5t-45 -45.5l-19 -9q-67 -27 -106 17l-236 256l-235 -256q-39 -45 -107 -17l-18 9q-38 17 -45.5 45.5t16.5 62.5zM684 -76h-582q-36 0 -55.5 20.5t-19.5 57.5v64q0 77 75 77h140
q18 0 21 3t3 20v1169q0 4 1 11.5t-0.5 8t-6.5 2t-18 1.5h-140q-75 0 -75 76v63q0 37 19.5 57.5t55.5 20.5h582q37 0 57.5 -20.5t20.5 -57.5v-63q0 -37 -20.5 -56.5t-57.5 -19.5h-129h-10q-19 0 -22 -1t-1 -7q2 -8 2 -15v-1169v-9t-0.5 -6.5t0.5 -4t1.5 -3t3.5 -1t5.5 0
t8.5 0.5h12h129q37 0 57.5 -20t20.5 -57v-64q0 -37 -20.5 -57.5t-57.5 -20.5z" />
    <glyph glyph-name="Idieresis" unicode="&#xcf;" horiz-adv-x="784" 
d="M174 1720q-71 0 -117.5 49.5t-46.5 122.5q0 74 46 121t118 47q75 0 124.5 -48t49.5 -120q0 -69 -52 -120.5t-122 -51.5zM604 1720q-71 0 -117.5 49.5t-46.5 122.5q0 74 46 121t118 47q75 0 124.5 -48t49.5 -120q0 -69 -52 -120.5t-122 -51.5zM684 -76h-582
q-36 0 -55.5 20.5t-19.5 57.5v64q0 77 75 77h140q18 0 21 3t3 20v1169q0 4 1 11.5t-0.5 8t-6.5 2t-18 1.5h-140q-75 0 -75 76v63q0 37 19.5 57.5t55.5 20.5h582q37 0 57.5 -20.5t20.5 -57.5v-63q0 -37 -20.5 -56.5t-57.5 -19.5h-129h-10q-19 0 -22 -1t-1 -7q2 -8 2 -15
v-1169v-9t-0.5 -6.5t0.5 -4t1.5 -3t3.5 -1t5.5 0t8.5 0.5h12h129q37 0 57.5 -20t20.5 -57v-64q0 -37 -20.5 -57.5t-57.5 -20.5z" />
    <glyph glyph-name="Eth" unicode="&#xd0;" horiz-adv-x="1492" 
d="M102 1575h570q357 0 557.5 -219.5t200.5 -612.5q0 -278 -121 -473q-212 -346 -662 -346h-545q-36 0 -55.5 20.5t-19.5 57.5v64q0 77 75 77h80q31 0 39 14.5t8 82.5v405h-90q-37 0 -56.5 20.5t-19.5 57.5v63q0 37 19.5 57.5t56.5 20.5h90v389v18v35.5t-4.5 23t-9.5 15.5
t-21.5 7t-33 4h-51.5q-82 3 -82 78v63q0 37 19.5 57.5t55.5 20.5zM915 205q113 62 178.5 216.5t65.5 360.5q0 298 -123 430q-140 146 -364 146h-113h-25t-18 -1t-13.5 -1t-8.5 -4t-6 -5t-2.5 -8.5t-1 -11t0.5 -15v-18.5v-430h185q37 0 57.5 -20.5t20.5 -57.5v-63
q0 -37 -20.5 -57.5t-57.5 -20.5h-185v-469q0 -23 9 -28t61 -5h92q161 0 268 62z" />
    <glyph glyph-name="Ntilde" unicode="&#xd1;" horiz-adv-x="1576" 
d="M920 1663q-89 0 -234 119q-87 69 -131 69q-67 0 -176 -71q-53 -39 -107 -11l-12 7q-57 26 -57 65q0 41 41 82q186 186 327 186q105 0 254 -122q34 -30 64.5 -48t40.5 -18q74 0 153 64q51 40 107 18l14 -6q60 -25 60 -66q0 -40 -37 -82q-77 -86 -159 -136t-148 -50z
M532 -76h-450q-37 0 -56.5 20.5t-19.5 57.5v64q0 37 19.5 57t56.5 20h88q7 0 19 18t12 36v1140q0 12 -3.5 16.5t-17.5 4.5h-98q-76 0 -76 76v63q0 37 19.5 57.5t56.5 20.5h283q58 0 92 -51l700 -1057v874q0 8 -0.5 10.5t-6.5 4.5t-20 2h-90q-75 0 -75 76v63q0 37 19.5 57.5
t55.5 20.5h453q37 0 57.5 -20.5t20.5 -57.5v-63q0 -37 -20.5 -56.5t-57.5 -19.5h-96q-13 0 -17 -3.5t-4 -13.5v-1339q0 -37 -20.5 -57.5t-57.5 -20.5h-43q-55 0 -90 53l-100 162l-645 977v-919q0 -30 8 -42t27 -12h77q37 0 57.5 -20t20.5 -57v-64q0 -37 -20.5 -57.5
t-57.5 -20.5z" />
    <glyph glyph-name="Ograve" unicode="&#xd2;" horiz-adv-x="1638" 
d="M1044 1735l-616 137q-57 14 -92 55t-35 98q0 31 10 58q18 50 57 80t91 30q33 0 69 -18l545 -260q57 -26 57 -90v-21q0 -41 -23 -59t-63 -10zM829 -106q-219 0 -394 110t-273.5 305t-98.5 439q0 236 101 433.5t277.5 312t387.5 114.5q153 0 292 -68t238.5 -183t158.5 -274
t59 -335q0 -241 -97 -436.5t-268.5 -306.5t-382.5 -111zM829 113q208 0 342 177.5t134 457.5q0 183 -62 329.5t-171 229t-243 82.5q-194 0 -333 -154q-162 -195 -162 -487q0 -283 137.5 -459t357.5 -176z" />
    <glyph glyph-name="Oacute" unicode="&#xd3;" horiz-adv-x="1638" 
d="M1208 1872l-616 -137q-40 -8 -63 10t-23 59v21q0 64 57 90l545 260q36 18 70 18q52 0 90.5 -30t56.5 -80q10 -27 10 -58q0 -57 -35 -98t-92 -55zM829 -106q-219 0 -394 110t-273.5 305t-98.5 439q0 236 101 433.5t277.5 312t387.5 114.5q153 0 292 -68t238.5 -183
t158.5 -274t59 -335q0 -241 -97 -436.5t-268.5 -306.5t-382.5 -111zM829 113q208 0 342 177.5t134 457.5q0 183 -62 329.5t-171 229t-243 82.5q-194 0 -333 -154q-162 -195 -162 -487q0 -283 137.5 -459t357.5 -176z" />
    <glyph glyph-name="Ocircumflex" unicode="&#xd4;" horiz-adv-x="1638" 
d="M438 1841l258 377q23 33 58.5 51.5t72.5 16.5q83 3 131 -68l259 -377q24 -34 16.5 -62.5t-45.5 -45.5l-19 -9q-67 -27 -106 17l-236 256l-235 -256q-39 -45 -107 -17l-18 9q-38 17 -45.5 45.5t16.5 62.5zM829 -106q-219 0 -394 110t-273.5 305t-98.5 439q0 236 101 433.5
t277.5 312t387.5 114.5q153 0 292 -68t238.5 -183t158.5 -274t59 -335q0 -241 -97 -436.5t-268.5 -306.5t-382.5 -111zM829 113q208 0 342 177.5t134 457.5q0 183 -62 329.5t-171 229t-243 82.5q-194 0 -333 -154q-162 -195 -162 -487q0 -283 137.5 -459t357.5 -176z" />
    <glyph glyph-name="Otilde" unicode="&#xd5;" horiz-adv-x="1638" 
d="M1042 1663q-88 0 -233 119q-87 69 -131 69q-67 0 -176 -71q-53 -39 -107 -11l-12 7q-57 26 -57 65q0 41 41 82q186 186 327 186q105 0 254 -122q34 -30 64.5 -48t40.5 -18q74 0 153 64q51 40 107 18l14 -6q59 -24 59 -66q0 -41 -36 -82q-76 -86 -159 -136t-149 -50z
M829 -106q-219 0 -394 110t-273.5 305t-98.5 439q0 236 101 433.5t277.5 312t387.5 114.5q153 0 292 -68t238.5 -183t158.5 -274t59 -335q0 -241 -97 -436.5t-268.5 -306.5t-382.5 -111zM829 113q208 0 342 177.5t134 457.5q0 183 -62 329.5t-171 229t-243 82.5
q-194 0 -333 -154q-162 -195 -162 -487q0 -283 137.5 -459t357.5 -176z" />
    <glyph glyph-name="Odieresis" unicode="&#xd6;" horiz-adv-x="1638" 
d="M1077 1561q222 -89 361 -311t139 -502q0 -241 -97 -436.5t-268.5 -306.5t-382.5 -111q-219 0 -394 110t-273.5 305t-98.5 439q0 286 146 509.5t379 307.5q-80 93 -80 217q0 138 94.5 232.5t231.5 94.5t233 -95.5t96 -231.5q0 -129 -86 -221zM834 1956q-73 0 -122.5 -50
t-49.5 -124t49.5 -124t122.5 -50q72 0 124 51t52 123t-51.5 123t-124.5 51zM829 113q208 0 342 177.5t134 457.5q0 183 -62 329.5t-171 229t-243 82.5q-194 0 -333 -154q-162 -195 -162 -487q0 -283 137.5 -459t357.5 -176z" />
    <glyph glyph-name="multiply" unicode="&#xd7;" 
d="M426 66l-66 65q-56 55 -2 109l533 546l-531 539q-50 50 -6 109l58 75q24 31 52 33.5t56 -26.5l545 -551l524 536q52 52 109 2l69 -63q59 -52 2 -109l-530 -545l541 -548q28 -28 26.5 -57t-32.5 -52l-74 -57q-59 -47 -109 6l-526 532l-530 -542q-54 -57 -109 -2z" />
    <glyph glyph-name="Oslash" unicode="&#xd8;" horiz-adv-x="1638" 
d="M1409 1624l-104 -211q127 -121 199.5 -294.5t72.5 -370.5q0 -241 -97 -436.5t-268.5 -306.5t-382.5 -111q-135 0 -254 43l-94 -193q-35 -66 -102 -35l-78 37q-66 35 -35 104l101 203q-143 116 -223.5 296.5t-80.5 398.5q0 236 101 433.5t277.5 312t387.5 114.5
q145 0 277 -60l90 183q33 65 104 34l74 -36q66 -35 35 -105zM334 748q0 -292 145 -467l527 1067q-80 41 -177 41q-194 0 -333 -154q-162 -195 -162 -487zM829 113q208 0 342 177.5t134 457.5q0 253 -115 430l-514 -1039q68 -26 153 -26z" />
    <glyph glyph-name="Ugrave" unicode="&#xd9;" horiz-adv-x="1550" 
d="M1024 1735l-616 137q-57 14 -92 55t-35 98q0 31 10 58q18 50 56.5 80t90.5 30q34 0 70 -18l545 -260q57 -26 57 -90v-21q0 -41 -23 -59t-63 -10zM741 -96q-271 0 -419 157q-123 129 -123 392v835q0 27 -4.5 45t-9.5 24.5t-11 6.5h-106q-37 0 -57.5 19.5t-20.5 56.5v57
q0 37 20.5 57.5t57.5 20.5h512q37 0 57 -20.5t20 -57.5v-57q0 -37 -20 -56.5t-57 -19.5h-86q-21 0 -30 -15.5t-9 -60.5v-835q0 -163 85 -246.5t251 -83.5q163 0 253.5 102.5t90.5 290.5v776q0 4 -3 38t-4 34h-106q-76 0 -76 76v57q0 37 19.5 57.5t56.5 20.5h448
q37 0 57.5 -20.5t20.5 -57.5v-57q0 -37 -20.5 -56.5t-57.5 -19.5h-92q-4 0 -8.5 -7t-8 -24t-3.5 -41v-776q0 -293 -161 -452.5t-456 -159.5z" />
    <glyph glyph-name="Uacute" unicode="&#xda;" horiz-adv-x="1550" 
d="M1229 1872l-617 -137q-40 -8 -63 10t-23 59v21q0 63 58 90l544 260q36 18 70 18q52 0 91 -30t57 -80q10 -27 10 -58q0 -57 -35 -98t-92 -55zM741 -96q-271 0 -419 157q-123 129 -123 392v835q0 27 -4.5 45t-9.5 24.5t-11 6.5h-106q-37 0 -57.5 19.5t-20.5 56.5v57
q0 37 20.5 57.5t57.5 20.5h512q37 0 57 -20.5t20 -57.5v-57q0 -37 -20 -56.5t-57 -19.5h-86q-21 0 -30 -15.5t-9 -60.5v-835q0 -163 85 -246.5t251 -83.5q163 0 253.5 102.5t90.5 290.5v776q0 4 -3 38t-4 34h-106q-76 0 -76 76v57q0 37 19.5 57.5t56.5 20.5h448
q37 0 57.5 -20.5t20.5 -57.5v-57q0 -37 -20.5 -56.5t-57.5 -19.5h-92q-4 0 -8.5 -7t-8 -24t-3.5 -41v-776q0 -293 -161 -452.5t-456 -159.5z" />
    <glyph glyph-name="Ucircumflex" unicode="&#xdb;" horiz-adv-x="1550" 
d="M393 1841l258 377q23 33 58.5 51.5t72.5 16.5q83 3 131 -68l258 -377q24 -34 17 -62.5t-45 -45.5l-19 -9q-67 -27 -106 17l-236 256l-235 -256q-39 -45 -107 -17l-18 9q-38 17 -45.5 45.5t16.5 62.5zM741 -96q-271 0 -419 157q-123 129 -123 392v835q0 27 -4.5 45
t-9.5 24.5t-11 6.5h-106q-37 0 -57.5 19.5t-20.5 56.5v57q0 37 20.5 57.5t57.5 20.5h512q37 0 57 -20.5t20 -57.5v-57q0 -37 -20 -56.5t-57 -19.5h-86q-21 0 -30 -15.5t-9 -60.5v-835q0 -163 85 -246.5t251 -83.5q163 0 253.5 102.5t90.5 290.5v776q0 4 -3 38t-4 34h-106
q-76 0 -76 76v57q0 37 19.5 57.5t56.5 20.5h448q37 0 57.5 -20.5t20.5 -57.5v-57q0 -37 -20.5 -56.5t-57.5 -19.5h-92q-4 0 -8.5 -7t-8 -24t-3.5 -41v-776q0 -293 -161 -452.5t-456 -159.5z" />
    <glyph glyph-name="Udieresis" unicode="&#xdc;" horiz-adv-x="1550" 
d="M543 1720q-71 0 -117.5 49.5t-46.5 122.5q0 74 46 121t118 47q75 0 124.5 -48t49.5 -120q0 -69 -52 -120.5t-122 -51.5zM973 1720q-71 0 -117.5 49.5t-46.5 122.5q0 74 46 121t118 47q75 0 124.5 -48t49.5 -120q0 -69 -52 -120.5t-122 -51.5zM741 -96q-271 0 -419 157
q-123 129 -123 392v835q0 27 -4.5 45t-9.5 24.5t-11 6.5h-106q-37 0 -57.5 19.5t-20.5 56.5v57q0 37 20.5 57.5t57.5 20.5h512q37 0 57 -20.5t20 -57.5v-57q0 -37 -20 -56.5t-57 -19.5h-86q-21 0 -30 -15.5t-9 -60.5v-835q0 -163 85 -246.5t251 -83.5q163 0 253.5 102.5
t90.5 290.5v776q0 4 -3 38t-4 34h-106q-76 0 -76 76v57q0 37 19.5 57.5t56.5 20.5h448q37 0 57.5 -20.5t20.5 -57.5v-57q0 -37 -20.5 -56.5t-57.5 -19.5h-92q-4 0 -8.5 -7t-8 -24t-3.5 -41v-776q0 -293 -161 -452.5t-456 -159.5z" />
    <glyph glyph-name="agrave" unicode="&#xe0;" horiz-adv-x="1126" 
d="M621 1219l-347 229q-108 71 -71 170q14 33 30 49q43 44 108 32t114 -61l258 -262q41 -43 20 -104l-6 -19q-15 -38 -43.5 -47.5t-62.5 13.5zM381 -117q-145 0 -236.5 90t-91.5 234q0 163 133 266q142 107 498 162v70q0 60 -51.5 104.5t-120.5 44.5q-45 0 -92 -22.5
t-47 -38.5v-19q0 -6 1 -17t1 -14q0 -61 -38.5 -97t-100.5 -36t-101 39t-39 101q0 134 122 227.5t294 93.5q179 0 304.5 -107t125.5 -259v-461l121 -66q63 -35 43 -100q-62 -190 -201 -193q-46 -2 -88 31t-63 94q-161 -127 -373 -127zM422 102q88 0 169 52.5t93 117.5v140
q-223 -46 -317 -113q-56 -34 -56 -92q0 -41 33.5 -73t77.5 -32z" />
    <glyph glyph-name="aacute" unicode="&#xe1;" horiz-adv-x="1126" 
d="M782 1448l-346 -229q-34 -23 -62.5 -13.5t-43.5 47.5l-6 19q-21 61 20 104l258 262q49 49 113.5 61t107.5 -32q17 -17 31 -49q37 -99 -72 -170zM381 -117q-145 0 -236.5 90t-91.5 234q0 163 133 266q142 107 498 162v70q0 60 -51.5 104.5t-120.5 44.5q-45 0 -92 -22.5
t-47 -38.5v-19q0 -6 1 -17t1 -14q0 -61 -38.5 -97t-100.5 -36t-101 39t-39 101q0 134 122 227.5t294 93.5q179 0 304.5 -107t125.5 -259v-461l121 -66q63 -35 43 -100q-62 -190 -201 -193q-46 -2 -88 31t-63 94q-161 -127 -373 -127zM422 102q88 0 169 52.5t93 117.5v140
q-223 -46 -317 -113q-56 -34 -56 -92q0 -41 33.5 -73t77.5 -32z" />
    <glyph glyph-name="acircumflex" unicode="&#xe2;" horiz-adv-x="1126" 
d="M125 1253l-6 19q-21 61 20 104l258 262q28 28 67 46t75 18t74.5 -18t66.5 -46l258 -262q41 -43 20 -104l-6 -19q-15 -38 -43.5 -47.5t-62.5 13.5l-307 202l-308 -202q-34 -24 -63.5 -14.5t-42.5 48.5zM381 -117q-145 0 -236.5 90t-91.5 234q0 163 133 266
q142 107 498 162v70q0 60 -51.5 104.5t-120.5 44.5q-45 0 -92 -22.5t-47 -38.5v-19q0 -6 1 -17t1 -14q0 -61 -38.5 -97t-100.5 -36t-101 39t-39 101q0 134 122 227.5t294 93.5q179 0 304.5 -107t125.5 -259v-461l121 -66q63 -35 43 -100q-62 -190 -201 -193q-46 -2 -88 31
t-63 94q-161 -127 -373 -127zM422 102q88 0 169 52.5t93 117.5v140q-223 -46 -317 -113q-56 -34 -56 -92q0 -41 33.5 -73t77.5 -32z" />
    <glyph glyph-name="atilde" unicode="&#xe3;" horiz-adv-x="1126" 
d="M678 1176q-57 -5 -174 84q-67 54 -96 51q-51 -6 -121 -76q-31 -37 -72 -14l-10 4q-42 18 -45 51t20 74q115 172 213 184q74 6 191 -88q56 -47 80 -47q49 6 102 65q37 40 74 23l10 -4q44 -14 47 -51q3 -33 -16 -74q-46 -78 -101 -128t-102 -54zM381 -117q-145 0 -236.5 90
t-91.5 234q0 163 133 266q142 107 498 162v70q0 60 -51.5 104.5t-120.5 44.5q-45 0 -92 -22.5t-47 -38.5v-19q0 -6 1 -17t1 -14q0 -61 -38.5 -97t-100.5 -36t-101 39t-39 101q0 134 122 227.5t294 93.5q179 0 304.5 -107t125.5 -259v-461l121 -66q63 -35 43 -100
q-62 -190 -201 -193q-46 -2 -88 31t-63 94q-161 -127 -373 -127zM422 102q88 0 169 52.5t93 117.5v140q-223 -46 -317 -113q-56 -34 -56 -92q0 -41 33.5 -73t77.5 -32z" />
    <glyph glyph-name="adieresis" unicode="&#xe4;" horiz-adv-x="1126" 
d="M297 1208q-71 0 -117.5 49.5t-46.5 122.5q0 74 46 121t118 47q75 0 124.5 -48t49.5 -120q0 -69 -52 -120.5t-122 -51.5zM727 1208q-71 0 -117.5 49.5t-46.5 122.5q0 74 46 121t118 47q75 0 124.5 -48t49.5 -120q0 -69 -52 -120.5t-122 -51.5zM381 -117q-145 0 -236.5 90
t-91.5 234q0 163 133 266q142 107 498 162v70q0 60 -51.5 104.5t-120.5 44.5q-45 0 -92 -22.5t-47 -38.5v-19q0 -6 1 -17t1 -14q0 -61 -38.5 -97t-100.5 -36t-101 39t-39 101q0 134 122 227.5t294 93.5q179 0 304.5 -107t125.5 -259v-461l121 -66q63 -35 43 -100
q-62 -190 -201 -193q-46 -2 -88 31t-63 94q-161 -127 -373 -127zM422 102q88 0 169 52.5t93 117.5v140q-223 -46 -317 -113q-56 -34 -56 -92q0 -41 33.5 -73t77.5 -32z" />
    <glyph glyph-name="aring" unicode="&#xe5;" horiz-adv-x="1126" 
d="M942 244l121 -66q63 -35 43 -100q-62 -190 -201 -193q-46 -2 -88 31t-63 94q-161 -127 -373 -127q-145 0 -236.5 90t-91.5 234q0 163 133 266q142 107 498 162v70q0 60 -51.5 104.5t-120.5 44.5q-45 0 -92 -22.5t-47 -38.5v-19q0 -6 1 -17t1 -14q0 -61 -38.5 -97
t-100.5 -36t-101 39t-39 101q0 83 49 152.5t134 113.5q-93 96 -93 229q0 138 94.5 233t231.5 95t233.5 -96t96.5 -232q0 -137 -97 -231q91 -50 144 -132t53 -177v-461zM340 1245q0 -74 49.5 -124t122.5 -50q72 0 124 51t52 123t-51.5 123t-124.5 51t-122.5 -50t-49.5 -124z
M684 272v140q-223 -46 -317 -113q-56 -34 -56 -92q0 -41 33.5 -73t77.5 -32q88 0 169 52.5t93 117.5z" />
    <glyph glyph-name="ae" unicode="&#xe6;" horiz-adv-x="1728" 
d="M1677 233q9 -57 -26 -100q-117 -141 -211.5 -194.5t-227.5 -53.5q-121 0 -224 50.5t-173 140.5q-55 -69 -141 -119q-139 -74 -293 -74q-145 0 -236.5 90t-91.5 234q0 163 133 266q142 107 498 162v70q0 60 -51.5 104.5t-120.5 44.5q-45 0 -92 -22.5t-47 -38.5v-19
q0 -6 1 -17t1 -14q0 -61 -38.5 -97t-100.5 -36t-101 39t-39 101q0 134 122 227.5t294 93.5q104 0 195.5 -39.5t150.5 -107.5q143 149 334 149q138 0 250 -73.5t175 -202t62 -285.5q0 -74 -77 -74h-656q9 -138 93.5 -236t193.5 -98q69 0 122 33.5t122 124.5q34 45 88 53
q49 11 77 -8q30 -21 35 -74zM1192 856q-70 0 -130.5 -55t-92.5 -146h442q-18 92 -61 138q-60 63 -158 63zM684 272v140q-223 -46 -317 -113q-56 -34 -56 -92q0 -41 33.5 -73t77.5 -32q88 0 169 52.5t93 117.5z" />
    <glyph glyph-name="ccedilla" unicode="&#xe7;" horiz-adv-x="1110" 
d="M1044 238q12 -54 -20 -99q-79 -108 -160.5 -168.5t-177.5 -79.5q0 -20 57 -61q5 -6 88 -63q25 -18 33.5 -47t-8.5 -56.5t-59 -36.5l-314 -69q-2 0 -28.5 -7.5t-40.5 -7.5q-50 0 -69 14t-38 56q-10 20 -10 45q0 44 33.5 67.5t93.5 20.5l227 -12q-82 42 -125.5 77.5
t-48.5 82.5q-193 40 -308.5 200.5t-115.5 392.5q0 253 162 418.5t408 165.5q165 0 286 -104.5t121 -249.5q0 -59 -41.5 -97t-103.5 -38q-70 0 -112 51.5t-25 122.5v4q0 6 1 14t1 10q-3 23 -43 46.5t-84 23.5q-125 0 -212 -97.5t-87 -236.5q0 -186 79.5 -296.5t212.5 -110.5
q62 0 113 32.5t113 114.5q35 49 86 57q55 9 80 -8q28 -19 36 -71z" />
    <glyph glyph-name="egrave" unicode="&#xe8;" horiz-adv-x="1093" 
d="M621 1219l-347 229q-108 71 -71 170q14 33 30 49q43 44 108 32t114 -61l258 -262q41 -43 20 -104l-6 -19q-15 -38 -43.5 -47.5t-62.5 13.5zM578 -115q-228 0 -376.5 165.5t-148.5 416.5q0 166 67 305.5t183 220t254 80.5t250 -73.5t175 -202t62 -285.5q0 -74 -77 -74
h-656q9 -138 93.5 -236t193.5 -98q69 0 122 33.5t122 124.5q34 45 88 53q50 11 78 -8q28 -20 34 -74q9 -57 -26 -100q-117 -141 -211 -194.5t-227 -53.5zM334 655h442q-18 92 -61 138q-60 63 -158 63q-70 0 -130.5 -55t-92.5 -146z" />
    <glyph glyph-name="eacute" unicode="&#xe9;" horiz-adv-x="1093" 
d="M864 1448l-346 -229q-34 -23 -62.5 -13.5t-43.5 47.5l-6 19q-21 61 20 104l258 262q49 49 113.5 61t107.5 -32q17 -17 31 -49q37 -99 -72 -170zM578 -115q-228 0 -376.5 165.5t-148.5 416.5q0 166 67 305.5t183 220t254 80.5t250 -73.5t175 -202t62 -285.5q0 -74 -77 -74
h-656q9 -138 93.5 -236t193.5 -98q69 0 122 33.5t122 124.5q34 45 88 53q50 11 78 -8q28 -20 34 -74q9 -57 -26 -100q-117 -141 -211 -194.5t-227 -53.5zM334 655h442q-18 92 -61 138q-60 63 -158 63q-70 0 -130.5 -55t-92.5 -146z" />
    <glyph glyph-name="ecircumflex" unicode="&#xea;" horiz-adv-x="1093" 
d="M145 1253l-6 19q-20 60 21 104l258 262q28 28 66.5 46t74.5 18t74.5 -18t66.5 -46l258 -262q41 -44 21 -104l-6 -19q-15 -38 -44 -47.5t-63 13.5l-307 202l-307 -202q-34 -24 -64 -14.5t-43 48.5zM578 -115q-228 0 -376.5 165.5t-148.5 416.5q0 166 67 305.5t183 220
t254 80.5t250 -73.5t175 -202t62 -285.5q0 -74 -77 -74h-656q9 -138 93.5 -236t193.5 -98q69 0 122 33.5t122 124.5q34 45 88 53q50 11 78 -8q28 -20 34 -74q9 -57 -26 -100q-117 -141 -211 -194.5t-227 -53.5zM334 655h442q-18 92 -61 138q-60 63 -158 63q-70 0 -130.5 -55
t-92.5 -146z" />
    <glyph glyph-name="edieresis" unicode="&#xeb;" horiz-adv-x="1093" 
d="M358 1208q-71 0 -117 49.5t-46 122.5q0 74 45.5 121t117.5 47q75 0 124.5 -48t49.5 -120q0 -69 -52 -120.5t-122 -51.5zM788 1208q-71 0 -117 49.5t-46 122.5q0 74 45.5 121t117.5 47q75 0 125 -48t50 -120q0 -69 -52.5 -120.5t-122.5 -51.5zM578 -115
q-228 0 -376.5 165.5t-148.5 416.5q0 166 67 305.5t183 220t254 80.5t250 -73.5t175 -202t62 -285.5q0 -74 -77 -74h-656q9 -138 93.5 -236t193.5 -98q69 0 122 33.5t122 124.5q34 45 88 53q50 11 78 -8q28 -20 34 -74q9 -57 -26 -100q-117 -141 -211 -194.5t-227 -53.5z
M334 655h442q-18 92 -61 138q-60 63 -158 63q-70 0 -130.5 -55t-92.5 -146z" />
    <glyph glyph-name="igrave" unicode="&#xec;" horiz-adv-x="739" 
d="M457 1219l-346 229q-109 71 -72 170q13 32 31 49q43 44 107.5 32t113.5 -61l258 -262q41 -43 20 -104l-6 -19q-15 -38 -43.5 -47.5t-62.5 13.5zM618 -76h-503q-37 0 -56.5 20.5t-19.5 57.5v64q0 37 19.5 57t56.5 20h123q4 0 9 -1q3 -1 4 -0.5t1 5.5v594q-2 0 -23 7
q-58 12 -91.5 42t-33.5 70q0 39 34.5 71.5t84.5 41.5q80 15 191 76q41 25 67.5 10.5t26.5 -60.5v-858q1 0 3.5 1t4.5 1h102q37 0 57.5 -20t20.5 -57v-64q0 -37 -20.5 -57.5t-57.5 -20.5z" />
    <glyph glyph-name="iacute" unicode="&#xed;" horiz-adv-x="739" 
d="M557 1448l-346 -229q-34 -23 -63 -13.5t-44 47.5l-6 19q-20 60 21 104l258 262q49 49 113.5 61t107.5 -32q18 -17 31 -49q37 -99 -72 -170zM618 -76h-503q-37 0 -56.5 20.5t-19.5 57.5v64q0 37 19.5 57t56.5 20h123q4 0 9 -1q3 -1 4 -0.5t1 5.5v594q-2 0 -23 7
q-58 12 -91.5 42t-33.5 70q0 39 34.5 71.5t84.5 41.5q80 15 191 76q41 25 67.5 10.5t26.5 -60.5v-858q1 0 3.5 1t4.5 1h102q37 0 57.5 -20t20.5 -57v-64q0 -37 -20.5 -57.5t-57.5 -20.5z" />
    <glyph glyph-name="icircumflex" unicode="&#xee;" horiz-adv-x="739" 
d="M-55 1253l-6 19q-21 61 20 104l258 262q28 28 66.5 46t74.5 18t75 -18t67 -46l258 -262q41 -43 20 -104l-6 -19q-15 -38 -43.5 -47.5t-62.5 13.5l-308 202l-307 -202q-34 -24 -63.5 -14.5t-42.5 48.5zM618 -76h-503q-37 0 -56.5 20.5t-19.5 57.5v64q0 37 19.5 57t56.5 20
h123q4 0 9 -1q3 -1 4 -0.5t1 5.5v594q-2 0 -23 7q-58 12 -91.5 42t-33.5 70q0 39 34.5 71.5t84.5 41.5q80 15 191 76q41 25 67.5 10.5t26.5 -60.5v-858q1 0 3.5 1t4.5 1h102q37 0 57.5 -20t20.5 -57v-64q0 -37 -20.5 -57.5t-57.5 -20.5z" />
    <glyph glyph-name="idieresis" unicode="&#xef;" horiz-adv-x="739" 
d="M135 1208q-71 0 -117.5 49.5t-46.5 122.5q0 74 46 121t118 47q75 0 124.5 -48t49.5 -120q0 -69 -52 -120.5t-122 -51.5zM565 1208q-71 0 -117.5 49.5t-46.5 122.5q0 74 46 121t118 47q75 0 124.5 -48t49.5 -120q0 -69 -52 -120.5t-122 -51.5zM618 -76h-503
q-37 0 -56.5 20.5t-19.5 57.5v64q0 37 19.5 57t56.5 20h123q4 0 9 -1q3 -1 4 -0.5t1 5.5v594q-2 0 -23 7q-58 12 -91.5 42t-33.5 70q0 39 34.5 71.5t84.5 41.5q80 15 191 76q41 25 67.5 10.5t26.5 -60.5v-858q1 0 3.5 1t4.5 1h102q37 0 57.5 -20t20.5 -57v-64
q0 -37 -20.5 -57.5t-57.5 -20.5z" />
    <glyph glyph-name="ntilde" unicode="&#xf1;" horiz-adv-x="1173" 
d="M215 1221l-10 4q-42 18 -45 51t20 74q115 172 213 184q74 6 191 -88q56 -47 80 -47q49 6 102 65q37 40 74 23l10 -4q44 -14 47 -51q3 -33 -16 -74q-46 -78 -101 -128t-102 -54q-57 -5 -174 84q-67 54 -96 51q-51 -6 -121 -76q-31 -37 -72 -14zM1022 143h80q37 0 57.5 -20
t20.5 -57v-64q0 -37 -20.5 -57.5t-57.5 -20.5h-416q-37 0 -56.5 20.5t-19.5 57.5v64q0 37 19.5 57t56.5 20h74q1 0 2 -1t2 -1v553q0 66 -33.5 101.5t-95.5 35.5q-70 0 -139.5 -48t-92.5 -111v-529h66q37 0 57.5 -20t20.5 -57v-64q0 -37 -20.5 -57.5t-57.5 -20.5h-397
q-37 0 -57.5 20.5t-20.5 57.5v64q0 37 20.5 57t57.5 20h61q2 0 6 -1t6 -1v594l-20 4q-56 10 -89.5 41.5t-33.5 71.5q0 38 33.5 70t83.5 43q42 10 114 43q61 33 107 0l63 -47q116 88 279 88q158 0 249 -95.5t91 -259.5v-551z" />
    <glyph glyph-name="ograve" unicode="&#xf2;" horiz-adv-x="1177" 
d="M662 1219l-347 229q-108 71 -71 170q14 33 30 49q43 44 108 32t114 -61l258 -262q41 -43 20 -104l-6 -19q-15 -38 -43.5 -47.5t-62.5 13.5zM594 -119q-238 0 -389.5 165.5t-151.5 422.5q0 173 70 312.5t194 218.5t277 79q235 0 382.5 -170t147.5 -440q0 -256 -149 -422
t-381 -166zM594 102q121 0 190.5 98t69.5 269q0 213 -76 305q-74 86 -184 86q-116 0 -197 -90q-75 -84 -75 -301q0 -171 72 -269t200 -98z" />
    <glyph glyph-name="oacute" unicode="&#xf3;" horiz-adv-x="1177" 
d="M823 1448l-346 -229q-34 -23 -62.5 -13.5t-43.5 47.5l-6 19q-21 61 20 104l258 262q49 49 113.5 61t107.5 -32q18 -17 31 -49q37 -99 -72 -170zM594 -119q-238 0 -389.5 165.5t-151.5 422.5q0 173 70 312.5t194 218.5t277 79q235 0 382.5 -170t147.5 -440
q0 -256 -149 -422t-381 -166zM594 102q121 0 190.5 98t69.5 269q0 213 -76 305q-74 86 -184 86q-116 0 -197 -90q-75 -84 -75 -301q0 -171 72 -269t200 -98z" />
    <glyph glyph-name="ocircumflex" unicode="&#xf4;" horiz-adv-x="1177" 
d="M178 1253l-6 19q-20 60 21 104l258 262q28 28 66.5 46t74.5 18t74.5 -18t66.5 -46l258 -262q41 -44 21 -104l-6 -19q-15 -38 -44 -47.5t-63 13.5l-307 202l-307 -202q-34 -24 -64 -14.5t-43 48.5zM594 -119q-238 0 -389.5 165.5t-151.5 422.5q0 173 70 312.5t194 218.5
t277 79q235 0 382.5 -170t147.5 -440q0 -256 -149 -422t-381 -166zM594 102q121 0 190.5 98t69.5 269q0 213 -76 305q-74 86 -184 86q-116 0 -197 -90q-75 -84 -75 -301q0 -171 72 -269t200 -98z" />
    <glyph glyph-name="otilde" unicode="&#xf5;" horiz-adv-x="1177" 
d="M741 1176q-57 -5 -174 84q-67 54 -96 51q-51 -6 -121 -76q-17 -20 -33 -23t-38 9l-11 4q-42 18 -45 51q-3 31 21 74q115 172 213 184q73 6 190 -88q56 -47 80 -47q49 6 102 65q37 40 74 23l10 -4q45 -15 48 -51q2 -31 -17 -74q-46 -78 -101 -128t-102 -54zM594 -119
q-238 0 -389.5 165.5t-151.5 422.5q0 173 70 312.5t194 218.5t277 79q235 0 382.5 -170t147.5 -440q0 -256 -149 -422t-381 -166zM594 102q121 0 190.5 98t69.5 269q0 213 -76 305q-74 86 -184 86q-116 0 -197 -90q-75 -84 -75 -301q0 -171 72 -269t200 -98z" />
    <glyph glyph-name="odieresis" unicode="&#xf6;" horiz-adv-x="1177" 
d="M373 1208q-71 0 -117.5 49.5t-46.5 122.5q0 74 46 121t118 47q75 0 124.5 -48t49.5 -120q0 -69 -52 -120.5t-122 -51.5zM803 1208q-71 0 -117.5 49.5t-46.5 122.5q0 74 46 121t118 47q75 0 124.5 -48t49.5 -120q0 -69 -52 -120.5t-122 -51.5zM594 -119
q-238 0 -389.5 165.5t-151.5 422.5q0 173 70 312.5t194 218.5t277 79q235 0 382.5 -170t147.5 -440q0 -256 -149 -422t-381 -166zM594 102q121 0 190.5 98t69.5 269q0 213 -76 305q-74 86 -184 86q-116 0 -197 -90q-75 -84 -75 -301q0 -171 72 -269t200 -98z" />
    <glyph glyph-name="divide" unicode="&#xf7;" 
d="M1065 1030q-92 0 -155.5 64t-63.5 155q0 93 63 156t156 63q91 0 156 -65t65 -154t-66 -154t-155 -65zM1769 653h-1427q-76 0 -76 76v94q0 37 19.5 57.5t56.5 20.5h1427q37 0 57.5 -20.5t20.5 -57.5v-94q0 -37 -20.5 -56.5t-57.5 -19.5zM1065 129q-90 0 -154.5 64.5
t-64.5 154.5q0 94 62.5 157.5t156.5 63.5q90 0 155.5 -65.5t65.5 -155.5q0 -88 -66.5 -153.5t-154.5 -65.5z" />
    <glyph glyph-name="oslash" unicode="&#xf8;" horiz-adv-x="1177" 
d="M1004 1090l-68 -138q90 -83 139 -207t49 -276q0 -256 -149 -422t-381 -166q-92 0 -172 27l-78 -158q-15 -32 -42.5 -41t-59.5 6l-49 23q-33 15 -42.5 42.5t7.5 61.5l84 168q-90 79 -139.5 197.5t-49.5 261.5q0 173 70 312.5t194 218.5t277 79q88 0 162 -24l63 127
q36 70 105 35l45 -23q69 -37 35 -104zM322 469q0 -128 40 -215l295 598q-27 8 -63 8q-116 0 -197 -90q-75 -84 -75 -301zM594 102q121 0 190.5 98t69.5 269q0 156 -37 240l-295 -598q52 -9 72 -9z" />
    <glyph glyph-name="ugrave" unicode="&#xf9;" horiz-adv-x="1165" 
d="M621 1219l-347 229q-108 71 -71 170q14 33 30 49q43 44 108 32t114 -61l258 -262q41 -43 20 -104l-6 -19q-15 -38 -43.5 -47.5t-62.5 13.5zM473 -90q-149 0 -234 94.5t-85 257.5v481q-4 0 -13 1t-14 1q-52 6 -86.5 39.5t-34.5 73.5q0 39 34.5 71.5t84.5 41.5
q73 14 192 78q41 23 68 8.5t27 -60.5v-669q0 -103 21.5 -145t74.5 -42q76 0 188 95l35 38v471l-47 5q-51 4 -81 34t-30 70q0 42 37 74t92 43q74 14 193 78q41 23 67.5 8.5t26.5 -60.5v-854h12h93q37 0 57 -20t20 -57v-64q0 -37 -20 -57.5t-57 -20.5h-287q-76 0 -76 35v33
q-125 -82 -258 -82z" />
    <glyph glyph-name="uacute" unicode="&#xfa;" horiz-adv-x="1165" 
d="M823 1448l-346 -229q-34 -23 -62.5 -13.5t-43.5 47.5l-6 19q-21 61 20 104l258 262q49 49 113.5 61t107.5 -32q18 -17 31 -49q37 -99 -72 -170zM473 -90q-149 0 -234 94.5t-85 257.5v481q-4 0 -13 1t-14 1q-52 6 -86.5 39.5t-34.5 73.5q0 39 34.5 71.5t84.5 41.5
q73 14 192 78q41 23 68 8.5t27 -60.5v-669q0 -103 21.5 -145t74.5 -42q76 0 188 95l35 38v471l-47 5q-51 4 -81 34t-30 70q0 42 37 74t92 43q74 14 193 78q41 23 67.5 8.5t26.5 -60.5v-854h12h93q37 0 57 -20t20 -57v-64q0 -37 -20 -57.5t-57 -20.5h-287q-76 0 -76 35v33
q-125 -82 -258 -82z" />
    <glyph glyph-name="ucircumflex" unicode="&#xfb;" horiz-adv-x="1165" 
d="M621 1219l-347 229q-108 71 -71 170q14 33 30 49q43 44 108 32t114 -61l258 -262q41 -43 20 -104l-6 -19q-15 -38 -43.5 -47.5t-62.5 13.5zM473 -90q-149 0 -234 94.5t-85 257.5v481q-4 0 -13 1t-14 1q-52 6 -86.5 39.5t-34.5 73.5q0 39 34.5 71.5t84.5 41.5
q73 14 192 78q41 23 68 8.5t27 -60.5v-669q0 -103 21.5 -145t74.5 -42q76 0 188 95l35 38v471l-47 5q-51 4 -81 34t-30 70q0 42 37 74t92 43q74 14 193 78q41 23 67.5 8.5t26.5 -60.5v-854h12h93q37 0 57 -20t20 -57v-64q0 -37 -20 -57.5t-57 -20.5h-287q-76 0 -76 35v33
q-125 -82 -258 -82z" />
    <glyph glyph-name="udieresis" unicode="&#xfc;" horiz-adv-x="1165" 
d="M317 1208q-71 0 -117 49.5t-46 122.5q0 74 45.5 121t117.5 47q75 0 125 -48t50 -120q0 -69 -52.5 -120.5t-122.5 -51.5zM748 1208q-71 0 -117.5 49.5t-46.5 122.5q0 74 46 121t118 47q75 0 124.5 -48t49.5 -120q0 -69 -52 -120.5t-122 -51.5zM473 -90q-149 0 -234 94.5
t-85 257.5v481q-4 0 -13 1t-14 1q-52 6 -86.5 39.5t-34.5 73.5q0 39 34.5 71.5t84.5 41.5q73 14 192 78q41 23 68 8.5t27 -60.5v-669q0 -103 21.5 -145t74.5 -42q76 0 188 95l35 38v471l-47 5q-51 4 -81 34t-30 70q0 42 37 74t92 43q74 14 193 78q41 23 67.5 8.5t26.5 -60.5
v-854h12h93q37 0 57 -20t20 -57v-64q0 -37 -20 -57.5t-57 -20.5h-287q-76 0 -76 35v33q-125 -82 -258 -82z" />
    <glyph glyph-name="OE" unicode="&#x152;" horiz-adv-x="2514" 
d="M2372 465h55q44 0 60 -25.5t-3 -66.5l-178 -389q-26 -60 -90 -60h-1178q-99 -30 -209 -30q-219 0 -394 110t-273.5 305t-98.5 439q0 236 101 433.5t277.5 312t387.5 114.5q98 0 207 -33h1184q65 0 86 -64l129 -399q12 -40 -1.5 -63t-49.5 -23h-25q-52 0 -88 23
q-35 23 -57 75q-56 133 -115.5 183.5t-154.5 50.5h-586q85 -96 139.5 -220.5t71.5 -265.5h198q29 0 43 0.5t29.5 6.5t21 15t10.5 29.5t6 45.5t1 69q2 40 22 62t56 22h51q37 0 57.5 -20.5t20.5 -57.5v-563q0 -75 -66 -75h-8q-55 0 -94 36q-36 39 -39 99q-1 44 -4.5 66
t-18.5 33.5t-31 13t-57 1.5h-194q-24 -301 -203 -512h547q54 0 103 18t83 41.5t70.5 65t56 70.5t49.5 76q29 51 93 51zM334 748q0 -283 137.5 -459t357.5 -176q208 0 342 177.5t134 457.5q0 183 -62 329.5t-171 229t-243 82.5q-194 0 -333 -154q-162 -195 -162 -487z" />
    <glyph glyph-name="oe" unicode="&#x153;" horiz-adv-x="1906" 
d="M1855 233q9 -57 -26 -100q-117 -141 -211 -194.5t-227 -53.5q-120 0 -222.5 49t-173.5 138q-72 -91 -174.5 -141t-226.5 -50q-238 0 -389.5 165.5t-151.5 422.5q0 173 70 312.5t194 218.5t277 79q126 0 230 -51.5t175 -146.5q70 91 166 141.5t205 50.5q138 0 250.5 -73.5
t175.5 -202t62 -285.5q0 -74 -78 -74h-656q9 -138 93.5 -236t193.5 -98q69 0 122 33.5t122 124.5q34 45 88 53q50 11 78 -8q28 -20 34 -74zM594 102q121 0 190.5 98t69.5 269q0 213 -76 305q-74 86 -184 86q-116 0 -197 -90q-75 -84 -75 -301q0 -171 72 -269t200 -98z
M1370 856q-70 0 -130.5 -55t-92.5 -146h442q-18 92 -61 138q-60 63 -158 63z" />
    <glyph glyph-name="caron" unicode="&#x2c7;" 
d="M1028 432q-81 0 -137 103q-99 172 -198 384.5t-99 258.5t30 76t74 30q49 0 99 -47l6 -8q104 -135 227 -324q124 175 232 312q52 73 116 73q43 0 74 -30t31 -74q0 -45 -95.5 -242.5t-211.5 -396.5q-59 -115 -148 -115zM1030 602l88 158q-1 -2 -16.5 -24t-22.5 -34
q-23 -37 -46.5 -46t-37.5 14q-15 24 -30 51q54 -101 61 -113z" />
    <glyph glyph-name="caron" unicode="&#x30c;" 
d="M1028 432q-81 0 -137 103q-99 172 -198 384.5t-99 258.5t30 76t74 30q49 0 99 -47l6 -8q104 -135 227 -324q124 175 232 312q52 73 116 73q43 0 74 -30t31 -74q0 -45 -95.5 -242.5t-211.5 -396.5q-59 -115 -148 -115zM1030 602l88 158q-1 -2 -16.5 -24t-22.5 -34
q-23 -37 -46.5 -46t-37.5 14q-15 24 -30 51q54 -101 61 -113z" />
    <glyph glyph-name="uni02CA" unicode="&#x2ca;" 
d="M895 487q-45 0 -82 37l-113 115q-36 36 -36 84q0 62 65 100q159 78 385 301l139 140q64 57 111 57q36 0 66 -27q28 -31 28 -73q0 -53 -82 -168l-205 -262q-110 -140 -178 -244q-39 -60 -98 -60zM846 711l43 -43q71 101 104 143q-68 -53 -147 -100z" />
    <glyph glyph-name="uni02CB" unicode="&#x2cb;" 
d="M1358 481q-40 0 -80 29l-195 125q-254 195 -426 299q-71 40 -71 108q0 45 35 86l116 121q37 37 76 37q44 0 80 -45l2 -4q128 -183 336 -367l168 -147q71 -58 71 -123q0 -47 -33 -83t-79 -36zM958 918q-88 97 -153 182l-45 -49q86 -53 198 -133z" />
    <glyph glyph-name="uni02CD" unicode="&#x2cd;" 
d="M2081 -317h-2040q-37 0 -57.5 20t-20.5 57v117q0 37 20.5 56.5t57.5 19.5h2040q37 0 57.5 -19.5t20.5 -56.5v-117q0 -37 -20.5 -57t-57.5 -20z" />
    <glyph glyph-name="dotaccent" unicode="&#x2d9;" 
d="M1038 567q-136 0 -230.5 95.5t-94.5 232.5q0 138 94 233t231 95t233.5 -96t96.5 -232t-96.5 -232t-233.5 -96zM1038 721q72 0 124 51t52 123t-51.5 123t-124.5 51t-122.5 -50t-49.5 -124t49.5 -124t122.5 -50z" />
    <glyph glyph-name="gravecomb" unicode="&#x300;" horiz-adv-x="0" 
 />
    <glyph glyph-name="acutecomb" unicode="&#x301;" horiz-adv-x="0" 
 />
    <glyph glyph-name="uni0302" unicode="&#x302;" horiz-adv-x="0" 
 />
    <glyph glyph-name="tildecomb" unicode="&#x303;" horiz-adv-x="0" 
 />
    <glyph glyph-name="uni0307" unicode="&#x307;" horiz-adv-x="0" 
 />
    <glyph glyph-name="uni0308" unicode="&#x308;" horiz-adv-x="0" 
 />
    <glyph glyph-name="uni030A" unicode="&#x30a;" horiz-adv-x="0" 
 />
    <glyph glyph-name="uni0327" unicode="&#x327;" horiz-adv-x="0" 
 />
    <glyph glyph-name="alpha" unicode="&#x3b1;" 
d="M668 16q-146 0 -243 99t-97 250q0 124 75 264t188.5 252t256.5 187.5t270 78.5l10 4q40 9 63 10t23 -6v-16q64 -16 105 -52q94 -76 94 -241v-78q38 57 57 94q37 80 95 158q55 113 141 113q58 0 96.5 -30t38.5 -83q0 -57 -81 -178t-173 -213q-98 -101 -154.5 -175.5
t-56.5 -97.5q0 -41 10.5 -66.5t28.5 -25.5q16 0 47 31q45 45 88 45q44 0 78 -51l4 -6q38 -53 6 -105q-37 -61 -92 -104q-61 -58 -176 -58q-165 0 -244 181q-207 -181 -458 -181zM1061 987v-12l78 18q-21 2 -78 -6zM692 240q206 3 379 194q48 67 76 121q55 137 55 291
q0 66 -11.5 85t-49.5 19q-72 0 -153.5 -53.5t-186.5 -171.5q-193 -217 -193 -389q0 -53 18.5 -73.5t65.5 -22.5zM1210 362l13 -2q0 17 2 25q-11 -14 -15 -23z" />
    <glyph glyph-name="beta" unicode="&#x3b2;" 
d="M395 -231q-56 0 -97.5 39.5t-41.5 95.5q0 42 49 135q128 237 230 498l143 370q152 382 322 561t386 179q77 0 141.5 -17t107.5 -43.5t76 -62t51 -70t29.5 -70.5t15 -60t3.5 -42q0 -114 -70.5 -212.5t-187.5 -149.5q88 -131 88 -295q0 -134 -71 -280t-178 -234
q-118 -95 -293 -95q-231 0 -387 279q-63 -163 -181 -424q-45 -102 -135 -102zM1098 221q70 0 133 55.5t101 149.5t38 199q0 100 -25.5 171.5t-52.5 71.5q-132 0 -194 29q-36 18 -54 37t-28 53q-16 49 10 100q21 33 44.5 47.5t62.5 14.5q50 0 131 -43q23 -10 28 -10
q85 0 161.5 55.5t76.5 118.5q0 166 -170 166q-69 0 -155.5 -71t-149.5 -181q-104 -197 -185 -451q-65 -196 -116 -327q15 24 63 24q52 0 84 -55q58 -90 99.5 -122t97.5 -32zM387 -76v2q-3 0 -4 -1z" />
    <glyph glyph-name="gamma" unicode="&#x3b3;" 
d="M737 -258q-38 0 -62 24t-32 64q-14 43 10.5 142.5t81.5 232.5l62 145l77 164q84 144 84 252q0 47 -31 92t-63 45q-40 0 -82 -26q-15 -9 -38.5 -26.5t-38.5 -25.5q-3 -1 -12 -5.5t-12.5 -6t-11.5 -5t-13 -4.5t-12 -2t-14 0t-14 3q-61 17 -61 106q0 51 49.5 108t122.5 94.5
t137 37.5q101 0 172.5 -60t102.5 -169q93 110 225.5 177.5t249.5 61.5q36 -1 51.5 -25.5t9.5 -62.5l-18 -104q-11 -60 -74 -78q-201 -58 -346 -180q-61 -64 -80 -117q-68 -181 -86 -264q-28 -125 -82 -258.5t-124 -231.5t-128 -98z" />
    <glyph glyph-name="delta" unicode="&#x3b4;" 
d="M864 16q-204 0 -332.5 129t-128.5 330q0 155 65.5 290t178 214t242.5 76l90 -13q-90 149 -90 269q0 142 77.5 239t192.5 97q175 0 344 -232q56 -76 115 -123q44 -35 55 -52q3 -4 6 -9q21 -35 21 -55q0 -22 -39 -64q-43 -40 -96 -37q-120 7 -190 59.5t-140 182.5
q-23 42 -44 64t-32 22q-47 0 -47 -92q0 -63 86 -156q227 -248 227 -534q0 -230 -180 -428q-151 -177 -381 -177zM825 229q125 0 224.5 136t99.5 313q0 118 -123 295v-8q0 -52 -33 -91q-16 -20 -33.5 -30.5t-50.5 -22.5q-63 -22 -108.5 -69.5t-66.5 -93t-33 -102t-13.5 -80
t-1.5 -44.5q0 -90 39 -146.5t100 -56.5z" />
    <glyph glyph-name="epsilon" unicode="&#x3b5;" 
d="M1036 16q-199 0 -322.5 92.5t-123.5 241.5q0 91 44.5 161.5t127.5 111.5l-10 10q-99 88 -99 201q0 135 107.5 223t271.5 88q190 0 383 -121q46 -26 55 -88v-2q6 -55 -14 -78q-18 -21 -67 -29q-47 -5 -95 21q-66 32 -132 56t-93 24q-82 0 -108 -29q-27 -27 -27 -65
q0 -39 25.5 -77t48.5 -38q18 0 26 2q65 35 142 35q60 0 110.5 -42t50.5 -98q0 -62 -48 -105.5t-113 -43.5q-66 0 -105 16q-42 11 -63 11q-4 0 -17.5 -4t-34.5 -15t-40 -26t-32.5 -41.5t-13.5 -57.5q0 -36 60 -71t131 -35q76 0 162 37.5t123 85.5q4 5 12 16t11 14.5t10 10.5
t12.5 9.5t14 4.5t19.5 2h88q43 0 62 -26t0 -64q-151 -318 -539 -318zM795 639q25 17 36 31l-12 18q-19 -14 -24 -49z" />
    <glyph glyph-name="zeta" unicode="&#x3b6;" 
d="M981 -254q-149 0 -291 111q-43 33 -43 84q0 49 51 77l9 7q46 30 106 6q98 -43 168 -43q75 0 134 28.5t59 61.5v8h-3q-24 17 -198 51q-290 63 -389 133q-123 86 -123 291q0 165 89 362t200 279q-58 67 -58 158q0 168 134.5 287.5t322.5 119.5q67 0 135 -30q53 -24 53 -82
q0 -47 -45 -86l-2 -2q-39 -34 -100 -31q-36 4 -57 4q-62 0 -99 -16q-60 -33 -95.5 -78t-35.5 -86q0 -20 7.5 -27.5t27.5 -7.5q24 0 74 12q160 56 286 56q56 0 107 -7.5t97.5 -23.5t74 -45.5t27.5 -69.5q0 -50 -63 -90t-147 -59t-163 -19q-125 0 -201 13l-94 10
q-39 -4 -99.5 -92.5t-106.5 -207t-46 -196.5q0 -81 67 -124.5t250 -75.5q228 -43 324 -114t96 -202q0 -147 -126.5 -245.5t-313.5 -98.5zM1231 1233q27 0 63 4q-21 0 -75 -4h12z" />
    <glyph glyph-name="eta" unicode="&#x3b7;" 
d="M1106 -242q-59 0 -97 48t-38 114q0 53 45 148l203 448l139 322l24 73q-7 11 -18 11q-50 0 -171.5 -94t-225.5 -214l-15 -43q-62 -170 -260 -467q-54 -87 -147 -84q-52 3 -81.5 37.5t-29.5 87.5q0 30 21 70.5t65 108.5q119 173 180 329q62 174 62 224q0 34 -23 34
q-43 0 -133 -106q-40 -45 -94 -51q-57 -3 -72 10q-17 17 -22 70q-3 55 33 96q106 120 187 171.5t165 51.5q80 0 137.5 -50t79.5 -134q201 176 385 176q92 0 160.5 -55.5t83.5 -141.5q18 -69 -41 -200l-250 -564l-66 -174l-32 -112q-20 -59 -62 -99.5t-92 -40.5zM897 766l4 6
l-2 2q-2 -4 -2 -8z" />
    <glyph glyph-name="theta" unicode="&#x3b8;" 
d="M786 16q-142 0 -222.5 101.5t-80.5 279.5q0 241 138 576q124 298 318.5 486t383.5 188q141 0 222 -107.5t81 -292.5q0 -132 -36.5 -279t-98.5 -281.5t-146 -258t-176 -214t-192.5 -144.5t-190.5 -54zM868 879l4 6q26 57 91 57h352q74 213 74 381q0 11 -1.5 23t-7.5 35
t-23.5 38t-43.5 15q-10 0 -32.5 -8t-70.5 -42t-99 -89t-117.5 -164t-125.5 -252zM786 231q87 0 212 139.5t227 354.5h-418q-86 -242 -86 -395q0 -46 17 -72.5t48 -26.5z" />
    <glyph glyph-name="iota" unicode="&#x3b9;" 
d="M958 16q-114 0 -185 69.5t-71 180.5q0 46 33 211l133 570q13 73 50.5 120t95.5 47q62 0 95.5 -37t33.5 -104q0 -30 -4 -55l-146 -639l-20 -117q3 -8 20 -8q24 0 100 67.5t142 149.5q36 45 88 53q56 6 80 -10q23 -20 31 -72q9 -51 -23 -96q-109 -156 -227.5 -243
t-225.5 -87z" />
    <glyph glyph-name="kappa" unicode="&#x3ba;" 
d="M545 20q-57 0 -89 38t-32 100q0 65 84 174q116 146 184 286q76 168 76 252q0 26 -1 30t-6 3h-5q-17 0 -47 -12q-57 -22 -97 -12q-43 8 -59 24q-14 16 -8 74q6 56 51 88q130 86 231 86q104 0 164 -67.5t60 -184.5q0 -58 -23 -145q203 157 377 311q81 84 168 84
q65 0 104 -38t39 -101q0 -51 -46.5 -96.5t-147.5 -112.5l-107 -66q-102 -131 -160.5 -250.5t-58.5 -195.5q0 -6 8 -11.5t19 -5.5q60 0 168 86q42 34 88 37q40 5 63 -8q20 -12 29 -70v-4q8 -57 -35 -100q-197 -188 -352 -188q-100 0 -159.5 59.5t-59.5 159.5q0 101 41 219
q-151 -109 -166 -121l-146 -229q-77 -93 -149 -93z" />
    <glyph glyph-name="lambda" unicode="&#x3bb;" 
d="M1325 16q-335 0 -350 574q-147 -228 -277 -484q-31 -63 -139 -63q-135 0 -135 98q0 72 198.5 376.5t350.5 471.5q-6 259 -60 361q-42 80 -82 80q-19 0 -49 -21q-50 -35 -94 -35q-47 0 -65 15q-20 17 -23 67q-6 57 33 96q99 93 209 93q183 0 292 -187.5t109 -496.5
l-2 -463q3 -108 37 -185t78 -77q32 0 67 30l56 53q54 54 108 -6l33 -37q50 -56 -6 -108l-82 -78q-86 -74 -207 -74zM1061 854l29 -8v43q-4 -4 -9 -10t-11 -13.5t-9 -11.5z" />
    <glyph glyph-name="uni03BC" unicode="&#x3bc;" 
d="M528 -264q-61 0 -94 35t-33 98q0 50 29 100l84 170q58 109 82 234l29 133q5 138 41.5 268.5t101 218.5t139.5 88q55 0 88.5 -36.5t36.5 -94.5v-16q-6 -36 -53 -115q-51 -76 -79 -172.5t-28 -189.5q0 -109 26 -168.5t67 -59.5q26 0 83 72.5t119 190.5l82 217
q42 116 107 243q52 113 141 113q49 0 83.5 -26.5t45.5 -71.5q19 -52 -43 -166l-110 -232q-72 -147 -72 -237q0 -5 -1 -14t-1 -13q2 4 5 14.5t5 14.5q6 31 66 31q58 0 94 -48l4 -6q36 -47 16 -104q-38 -102 -87.5 -146.5t-135.5 -44.5q-118 0 -174 111q-121 -114 -252 -111
q-94 0 -170 66l-6 -19q-45 -141 -100 -239q-53 -88 -136 -88zM731 274l8 5q0 6 -4 14q-1 -3 -2 -9.5t-2 -9.5z" />
    <glyph glyph-name="nu" unicode="&#x3bd;" 
d="M705 16q-63 0 -104 44t-38 108l15 119l118 592q6 24 6 39q0 14 -13 19t-48 5h-80q-41 0 -58.5 23t-6.5 63l18 57q18 66 86 66h340q40 0 59 -23t11 -61l-148 -739q7 3 19.5 9.5t17.5 8.5q106 63 204 175.5t126 203.5l24 121v129q0 87 42 145t114 58q74 0 119 -50.5
t45 -130.5q0 -128 -72.5 -289.5t-195.5 -312.5q-147 -170 -311.5 -274.5t-288.5 -104.5zM1407 975v-72q12 70 12 94v7q0 9 -0.5 12.5t-2.5 5.5t-7 2q1 -3 0.5 -12.5t-1.5 -23.5zM850 262q-2 0 -2 2l-4 -21q6 16 6 19zM721 193l-4 -23q4 0 12 1t12 1q-10 7 -20 21z" />
    <glyph glyph-name="xi" unicode="&#x3be;" 
d="M938 -176q-49 0 -125 29q-57 22 -57 81q0 53 47 89l8 4q44 33 72 24q10 -2 26 -2q19 0 36.5 4.5t26.5 9.5t9 7q0 -1 -24.5 4t-53 11t-33.5 7q-198 26 -291.5 117.5t-93.5 259.5q0 99 61 188.5t169 151.5q-76 82 -76 205q0 124 115 213q11 9 21 19.5t14 16.5t4 7
q0 171 96.5 266.5t269.5 95.5q68 0 115 -34.5t47 -94.5q0 -80 -80 -114q122 0 201.5 -36t79.5 -108q0 -145 -285 -145q-127 0 -195 16l-65 8q-41 -2 -84 -40.5t-43 -75.5q0 -25 28 -68t40 -43q22 0 34 2q116 29 199 29q120 0 201.5 -38.5t81.5 -113.5q0 -143 -283 -143
q-88 0 -158 20l-80 13q-22 -2 -53 -15.5t-66 -39t-59 -71t-24 -100.5q0 -21 10.5 -33t50 -24.5t119.5 -24.5q179 -24 266 -94q94 -66 94 -194q0 -110 -86.5 -178t-226.5 -68z" />
    <glyph glyph-name="omicron" unicode="&#x3bf;" 
d="M907 16q-186 0 -298.5 127t-112.5 338q0 166 79.5 319.5t211.5 248.5t276 98l47 12q49 13 49 -2v-14q67 -8 123.5 -32.5t94 -57t66.5 -73.5t45.5 -80t27 -79.5t13.5 -68.5t3 -50q0 -181 -85.5 -339.5t-230 -252.5t-309.5 -94zM907 229q85 0 168 73t135 192.5t52 246.5
q0 87 -50 142t-129 55q-51 0 -97 -27.5t-99 -89.5q-121 -136 -121 -405q0 -77 42 -132t99 -55z" />
    <glyph glyph-name="pi" unicode="&#x3c0;" 
d="M553 16q-56 0 -93.5 45.5t-37.5 106.5q0 38 34.5 87t100.5 116q84 87 175 231.5t114 220.5q-119 -1 -168.5 -20t-83.5 -74q-33 -53 -82 -53q-52 0 -84 49l-4 6q-37 52 -8 105q70 142 178 201t299 59q184 0 369 -29q94 -12 184 -12q77 0 145 57q48 39 84 39q47 0 76 -53
l6 -8q33 -54 -8 -121q-62 -97 -134.5 -141.5t-170.5 -43.5l-43 2q-162 -404 -162 -520q0 -12 45 -12q73 0 154 78q44 41 82 41q40 0 67 -58l6 -10q28 -61 -12 -106q-165 -183 -358 -183q-131 0 -199 63.5t-68 186.5q0 89 207 537l-96 8q-71 -264 -356 -688l-52 -64
q-43 -43 -106 -43z" />
    <glyph glyph-name="rho" unicode="&#x3c1;" 
d="M557 -252q-54 0 -94.5 40t-40.5 95q0 32 94 293q102 286 113 328q78 319 224 483t353 164q209 0 329 -127.5t120 -349.5q0 -128 -43 -249t-114.5 -210.5t-168.5 -144t-199 -54.5q-212 0 -313 185q-71 -227 -106 -332q-18 -56 -58 -88.5t-96 -32.5zM1108 242
q70 0 137 64.5t108.5 173.5t41.5 229q0 109 -49 170t-134 61q-52 0 -104 -41q-67 -44 -127 -166t-104 -305h12l35 -29q14 -11 25 -25t16.5 -24t17.5 -33q20 -35 53.5 -55t71.5 -20z" />
    <glyph glyph-name="sigma" unicode="&#x3c3;" 
d="M905 16q-212 0 -346.5 127.5t-134.5 325.5q0 313 238 522q183 160 514 160q288 0 356 49q80 62 125 62q48 0 73 -39t25 -99q0 -95 -38 -173.5t-101 -96.5q-7 -2 -13.5 -3.5t-13.5 -1t-11.5 0.5t-13 1.5t-12 2t-14.5 3t-14 3.5l-37 10q-114 30 -189 37q158 -90 158 -303
q0 -229 -176 -411q-165 -177 -375 -177zM1528 1018l53 -12q2 7 10 51q-41 -20 -90 -31l12 -4t15 -4zM858 229q75 0 151.5 56t125.5 144t49 175q0 76 -32.5 111.5t-113.5 42.5q-58 6 -96 41q-37 40 -37 41v2q-27 -19 -57 -49q-152 -159 -152 -359q0 -94 44 -149.5t118 -55.5z
" />
    <glyph glyph-name="tau" unicode="&#x3c4;" 
d="M907 16q-94 0 -162.5 74.5t-68.5 173.5q0 117 125 443l45 102q-82 -4 -135 -31.5t-115 -95.5q-40 -43 -84 -43q-48 0 -80 49l-4 6q-35 49 -8 107q76 155 184 217.5t293 60.5l313 -16q109 0 169.5 14.5t101.5 50.5q25 24 43 33.5t41 9.5q46 0 80 -51l4 -6q35 -49 12 -96
q-63 -123 -168 -175t-287 -50l-96 4q-72 -130 -118 -268.5t-46 -178.5q0 -34 10 -47.5t35 -13.5q26 0 65.5 22t71.5 54q25 26 42.5 37.5t41.5 11.5q48 0 78 -58l4 -10q29 -57 -12 -106q-90 -105 -189 -164.5t-186 -59.5z" />
    <glyph glyph-name="upsilon" unicode="&#x3c5;" 
d="M893 16q-136 0 -223.5 89t-87.5 227q0 91 45 174l100 194q25 52 25 66q0 29 -7.5 46t-17.5 17q-39 0 -104 -114q-33 -56 -84 -56q-53 0 -86 50l-4 8q-33 51 -5 106q75 148 157.5 213.5t195.5 65.5q90 0 157.5 -84.5t67.5 -190.5q0 -84 -47 -176l-96 -211
q-27 -68 -27 -108q0 -68 84 -68t180 58l2 2q61 33 113.5 80.5t84.5 90.5t55 83.5t32.5 64.5t9.5 29q0 8 -20 55q-35 75 -35 160q0 75 41.5 129.5t105.5 54.5q83 0 134 -70t51 -174q0 -134 -150 -381q-117 -203 -287 -316.5t-360 -113.5zM1532 793q4 24 4 34q0 58 -20 82
q-5 -10 -5 -22q0 -47 21 -94z" />
    <glyph glyph-name="phi" unicode="&#x3c6;" 
d="M821 -250q-60 0 -96.5 37.5t-36.5 97.5q0 45 39 103q19 28 35 59q-180 48 -281.5 154t-101.5 250q0 310 321 473q172 88 338 98q10 2 33 2q59 -6 90 -31l49 -41q-13 18 -6 35l6 14v25q-38 0 -54 23t-5 63l43 143q20 63 50.5 92t88.5 29q63 0 102.5 -39.5t39.5 -103.5
q0 -34 -66 -168q-7 -14 -10 -21l-19 -34q-1 -1 -2 -5t-2 -6q163 -43 270 -158.5t107 -256.5q0 -133 -85 -255t-238 -210q-183 -100 -418 -103l-45 -153q-15 -52 -54 -82.5t-92 -30.5zM844 252q128 322 211 561q-178 -19 -293 -120.5t-115 -241.5q0 -64 54 -118.5t143 -80.5z
M1083 233q154 18 275 121q127 112 127 230q0 68 -53 124.5t-140 84.5q-77 -198 -209 -560z" />
    <glyph glyph-name="chi" unicode="&#x3c7;" 
d="M1278 -244q-143 0 -229 121q-78 96 -99 342l-223 -266l-113 -131q-53 -53 -135 -53q-44 0 -73 30t-29 76q0 142 141 277l422 407q-7 135 -20.5 205t-35.5 96.5t-63 26.5q-64 0 -143 -109q-35 -49 -84 -49t-78 53l-6 11q-30 56 6 106q157 211 342 211q249 0 311 -322
l240 238q73 80 152 80q61 0 102 -37t41 -96t-60 -125t-174 -146q-163 -121 -270 -223v-67q0 -166 11 -260t34 -133t62 -39q68 0 141 131q18 31 36.5 45t45.5 14q52 0 86 -51l4 -6q36 -50 10 -105q-126 -252 -352 -252zM944 213l6 8q-6 61 -6 129v-137z" />
    <glyph glyph-name="psi" unicode="&#x3c8;" 
d="M846 -231q-64 0 -106 36.5t-42 96.5q0 58 45 143l15 31q-146 50 -237 150t-91 216q0 131 170 322q12 15 31 38t34 41t15 17q0 35 -10 35q-62 0 -119 -111q-29 -59 -80 -59q-58 0 -86 51l-6 8q-31 58 2 107q72 117 152.5 168t191.5 51q98 0 168 -73.5t70 -176.5
q0 -63 -105 -190q-147 -173 -147 -248q0 -102 145 -152q95 194 148 344l141 385q85 244 139 349q25 54 64.5 85t85.5 31q64 0 109.5 -42t45.5 -103q3 -51 -65 -174q-134 -227 -256 -537l-144 -354q110 15 185 70q75 49 162.5 149t87.5 135q0 10 -21 37q-78 88 -78 180
q0 75 53.5 132t126.5 57q84 0 136.5 -66.5t52.5 -167.5q0 -24 -3 -54.5t-24.5 -103.5t-58.5 -142.5t-115 -158.5t-184 -163q-171 -118 -408 -123q-32 -85 -45 -135q-11 -62 -49 -96.5t-96 -34.5zM1669 725q6 40 6 55q0 37 -11 58.5t-24 21.5q-9 0 -17.5 -11.5t-8.5 -23.5
q0 -30 28 -65q18 -22 27 -35z" />
    <glyph glyph-name="omega" unicode="&#x3c9;" 
d="M621 16q-184 0 -293 114t-109 308q0 190 71.5 353t195 258.5t268.5 95.5q63 0 159 -27q64 -18 64 -86v-53q0 -39 -22 -58t-62 -14l-82 13q-82 -2 -157 -69t-121 -178.5t-46 -234.5q0 -93 43 -144.5t119 -51.5q66 0 142 22q-41 80 -41 201q0 116 85 204.5t199 88.5
q98 0 169 -81t71 -194q0 -127 -109 -239q10 -2 29 -2q166 0 276.5 121.5t110.5 308.5q0 113 -35 180t-96 68l-78 -13q-82 -9 -82 72v49q0 67 51 86q81 31 152 31q165 0 260.5 -127.5t95.5 -345.5q0 -175 -79.5 -326.5t-214 -240.5t-289.5 -89q-120 0 -189.5 19t-128.5 57
q-76 -36 -150 -56t-177 -20zM989 354q74 58 74 129q0 30 -8.5 46t-20.5 16q-26 0 -45.5 -31.5t-19.5 -77.5q0 -38 20 -82z" />
    <glyph glyph-name="endash" unicode="&#x2013;" 
d="M1944 668h-1758q-75 0 -75 75v66q0 37 19.5 57.5t55.5 20.5h1758q37 0 57 -20.5t20 -57.5v-66q0 -75 -77 -75z" />
    <glyph glyph-name="emdash" unicode="&#x2014;" 
d="M1944 674h-1758q-75 0 -75 76v53q0 37 19.5 57.5t55.5 20.5h1758q37 0 57 -20.5t20 -57.5v-53q0 -37 -20 -56.5t-57 -19.5z" />
    <glyph glyph-name="quoteleft" unicode="&#x2018;" horiz-adv-x="657" 
d="M444 1694l29 -19q71 -42 21 -110q-63 -82 -105 -133q44 -22 68 -61t24 -89q0 -66 -45 -113t-112 -47q-79 0 -130 61t-51 150q0 175 193 350q51 45 108 11z" />
    <glyph glyph-name="quoteright" unicode="&#x2019;" horiz-adv-x="657" 
d="M213 1137l-29 18q-70 42 -20 111q74 96 104 133q-92 45 -92 149q0 65 45.5 112.5t112.5 47.5q78 0 129 -61t51 -150q0 -176 -192 -350q-50 -45 -109 -10z" />
    <glyph glyph-name="quotedblleft" unicode="&#x201c;" horiz-adv-x="1130" 
d="M494 1772q46 -20 57 -41q12 -24 -8 -76v-2q-10 -28 -27 -45t-47 -31q-50 -24 -70 -53q52 -21 83.5 -66t31.5 -102q0 -76 -54.5 -130.5t-131.5 -54.5q-90 0 -137.5 64t-47.5 172q0 121 67 216t187 146q47 21 97 3zM983 1731q12 -24 -8 -76v-2q-10 -28 -27 -45t-47 -31
q-50 -24 -70 -53q52 -21 83.5 -66t31.5 -102q0 -76 -54.5 -130.5t-131.5 -54.5q-90 0 -137.5 64t-47.5 172q0 121 67 216t187 146q47 21 97 3q46 -20 57 -41z" />
    <glyph glyph-name="quotedblright" unicode="&#x201d;" horiz-adv-x="1136" 
d="M207 1194q-41 16 -57 41q-14 22 6 78v2q19 49 71 76q45 22 72 49q-51 22 -80 67t-29 105q0 79 51 130.5t132 51.5q72 0 123.5 -48.5t60.5 -123.5q4 -25 4 -61q0 -122 -67 -217t-189 -148q-47 -20 -98 -2zM639 1194q-41 16 -57 41q-14 22 6 78v2q19 49 71 76q45 22 72 49
q-51 22 -79.5 67t-28.5 105q0 79 50.5 130.5t131.5 51.5q65 0 119 -45q69 -58 69 -188q0 -122 -67 -217t-189 -148q-47 -20 -98 -2z" />
    <glyph glyph-name="bullet" unicode="&#x2022;" 
d="M1065 545q-97 0 -165.5 68t-68.5 163q0 100 67 168t167 68q95 0 164 -69.5t69 -166.5q0 -94 -69.5 -162.5t-163.5 -68.5z" />
    <glyph glyph-name="bullet" unicode="&#x2027;" 
d="M1065 545q-97 0 -165.5 68t-68.5 163q0 100 67 168t167 68q95 0 164 -69.5t69 -166.5q0 -94 -69.5 -162.5t-163.5 -68.5z" />
    <glyph glyph-name="twodotenleader" unicode="&#x2025;" 
d="M563 588q-79 0 -133.5 54t-54.5 134q0 85 52.5 139t135.5 54q82 0 137.5 -55.5t55.5 -137.5q0 -76 -57.5 -132t-135.5 -56zM1579 588q-79 0 -133.5 54t-54.5 134q0 85 52.5 139t135.5 54q81 0 135.5 -55.5t54.5 -137.5q0 -77 -56 -132.5t-134 -55.5z" />
    <glyph glyph-name="ellipsis" unicode="&#x2026;" 
d="M383 588q-79 0 -132.5 54t-53.5 134q0 84 52.5 138.5t133.5 54.5q82 0 137 -55.5t55 -137.5q0 -78 -56 -133t-136 -55zM1065 588q-82 0 -136.5 53.5t-54.5 134.5q0 84 53.5 138.5t137.5 54.5q81 0 135.5 -55.5t54.5 -137.5q0 -77 -56.5 -132.5t-133.5 -55.5zM1761 588
q-79 0 -133.5 54t-54.5 134q0 85 52.5 139t135.5 54q79 0 135 -56.5t56 -136.5q0 -77 -56.5 -132.5t-134.5 -55.5z" />
    <glyph glyph-name="ellipsis" unicode="&#x22ef;" 
d="M383 588q-79 0 -132.5 54t-53.5 134q0 84 52.5 138.5t133.5 54.5q82 0 137 -55.5t55 -137.5q0 -78 -56 -133t-136 -55zM1065 588q-82 0 -136.5 53.5t-54.5 134.5q0 84 53.5 138.5t137.5 54.5q81 0 135.5 -55.5t54.5 -137.5q0 -77 -56.5 -132.5t-133.5 -55.5zM1761 588
q-79 0 -133.5 54t-54.5 134q0 85 52.5 139t135.5 54q79 0 135 -56.5t56 -136.5q0 -77 -56.5 -132.5t-134.5 -55.5z" />
    <glyph glyph-name="minute" unicode="&#x2032;" 
d="M793 1481l-613 -131q-40 -8 -62 9.5t-22 57.5v23q0 64 56 90l536 250q40 16 74 16q49 0 91.5 -31t57.5 -77q11 -44 11 -58q0 -56 -37.5 -99.5t-91.5 -49.5z" />
    <glyph glyph-name="uni2035" unicode="&#x2035;" horiz-adv-x="999" 
d="M825 1313l-616 137q-57 14 -92 55.5t-35 98.5q0 30 10 57q18 50 57 80.5t91 30.5q31 0 69 -19l545 -260q57 -26 57 -90v-21q0 -41 -23 -59t-63 -10z" />
    <glyph glyph-name="uni203B" unicode="&#x203b;" 
d="M360 4l-41 37q-59 53 -6 109l592 628l-598 619q-57 57 6 108l41 33q59 47 109 -6l588 -602l573 606q51 54 109 6l43 -37q60 -51 6 -108l-586 -619l610 -622q55 -55 -6 -109l-43 -37q-55 -46 -108 6l-598 613l-582 -619q-53 -56 -109 -6zM1065 1051q-89 0 -152 64t-63 153
t63 152t152 63q88 0 152.5 -63.5t64.5 -151.5t-64.5 -152.5t-152.5 -64.5zM1065 1204q23 0 43 20t20 44q0 23 -19 42t-44 19q-26 0 -43.5 -18t-17.5 -43q0 -26 18 -45t43 -19zM584 561q-88 0 -150.5 63.5t-62.5 151.5q0 90 62 153.5t151 63.5q90 0 153.5 -63.5t63.5 -153.5
q0 -88 -64.5 -151.5t-152.5 -63.5zM1542 561q-88 0 -150.5 63.5t-62.5 151.5q0 91 62 154t151 63t153 -64t64 -153q0 -88 -64.5 -151.5t-152.5 -63.5zM584 715q25 0 44 18t19 43q0 28 -18.5 46t-44.5 18q-25 0 -42.5 -19t-17.5 -45q0 -24 18 -42.5t42 -18.5zM1542 715
q24 0 44 19t20 42q0 26 -19.5 45t-44.5 19q-26 0 -42.5 -18t-16.5 -46q0 -25 18 -43t41 -18zM1065 70q-89 0 -152 63t-63 152t63 153t152 64q88 0 152.5 -64.5t64.5 -152.5t-64.5 -151.5t-152.5 -63.5zM1065 223q23 0 43 19.5t20 42.5q0 25 -19 44t-44 19q-26 0 -43.5 -18.5
t-17.5 -44.5q0 -25 17.5 -43.5t43.5 -18.5z" />
    <glyph glyph-name="uni2103" unicode="&#x2103;" 
d="M385 1153q-131 0 -218 90t-87 225q0 128 85.5 220.5t209.5 95.5l47 12q49 13 49 -4v-16q107 -24 174.5 -108t67.5 -200q0 -130 -97 -222.5t-231 -92.5zM1354 -125q-210 0 -369 108t-245.5 305t-86.5 455q0 278 83.5 491.5t235.5 331t349 117.5q147 0 297 -75q-6 35 13 55
t59 20h55q69 0 84 -67l110 -442q10 -41 -6 -64t-53 -20l-33 4q-50 5 -84 30q-24 19 -53 72q-19 33 -44.5 68t-64 72.5t-80.5 66.5t-94.5 48t-105.5 19q-174 0 -285.5 -201.5t-111.5 -525.5q0 -309 139 -503q97 -127 291 -127q240 0 420 303q32 52 79 57q48 5 84 -45l7 -10
q37 -51 8 -107q-116 -211 -238 -303q-169 -133 -360 -133zM385 1372q40 0 73.5 29.5t33.5 66.5q0 42 -27.5 69.5t-69.5 27.5t-69 -28t-27 -69t24.5 -68.5t61.5 -27.5zM1786 1530h2l-4 20l-2 4q4 -16 4 -24z" />
    <glyph glyph-name="uni2105" unicode="&#x2105;" 
d="M299 -244l-53 54q-52 52 -6 108l1519 1845q49 58 109 11l57 -48q57 -48 10 -108l-678 -821q118 67 267 67q214 0 356.5 -150.5t142.5 -377.5q0 -233 -140.5 -383t-358.5 -150t-360 150.5t-142 382.5q0 119 35 215l-649 -789q-51 -64 -109 -6zM637 694q-234 0 -380 155.5
t-146 405.5q0 131 67 245t182 181.5t248 67.5q104 0 207 -50t168.5 -129t65.5 -159q0 -79 -52.5 -128.5t-132.5 -49.5q-60 0 -106.5 52.5t-46.5 115.5q0 21 8 53q4 16 4 27q-2 30 -28 44.5t-87 14.5q-84 0 -150.5 -86t-66.5 -199q0 -70 11.5 -126t28.5 -91t41.5 -61t45 -38
t45 -19t35.5 -8t23 -1q108 0 192 84q42 45 84 52q50 9 70 -3t34 -65q13 -63 -26 -109q-141 -176 -338 -176zM1524 10q47 0 84.5 16.5t60.5 45t39 61t23.5 72t10.5 70t3 61.5q0 142 -62.5 232.5t-158.5 90.5q-106 0 -163.5 -83.5t-57.5 -239.5q0 -189 67 -262q64 -64 154 -64
z" />
    <glyph glyph-name="uni2109" unicode="&#x2109;" 
d="M1249 41h-499q-76 0 -76 76v59q0 37 19.5 57.5t56.5 20.5h71q47 0 47 45v1110q0 32 -6 40.5t-24 8.5h-127q-4 -127 -99.5 -216t-226.5 -89t-218 90t-87 225q0 128 85.5 220.5t209.5 95.5l10 4q40 9 63 10t23 -6v-16q136 -31 203 -152v23q0 22 76 22h1120q70 0 82 -70
l69 -382q6 -43 -15 -64t-62 -12l-48 12q-58 11 -79 72q-44 124 -98 178.5t-132 54.5h-424q-14 0 -19 -10t-5 -39v-420h252q29 0 39 8t10 33v113q0 37 19.5 57.5t56.5 20.5h61q37 0 57.5 -20.5t20.5 -57.5v-535q0 -37 -20.5 -56.5t-57.5 -19.5h-61q-76 0 -76 76v129
q0 19 -11 28t-38 9h-252v-475q0 -25 10.5 -35t36.5 -10h63q37 0 57.5 -20.5t20.5 -57.5v-59q0 -37 -20.5 -56.5t-57.5 -19.5zM385 1372q40 0 73.5 29.5t33.5 66.5q0 42 -27.5 69.5t-69.5 27.5t-69 -28t-27 -69t24.5 -68.5t61.5 -27.5zM1004 1507q0 1 1 4t1 5h-7q4 -8 5 -9z
M991 195h21q-8 9 -11 16q-3 -9 -10 -16z" />
    <glyph glyph-name="trademark" unicode="&#x2122;" 
d="M1919 762q38 -1 58 -25.5t20 -60.5v-17q0 -36 -20.5 -55.5t-57.5 -19.5h-344q-76 0 -76 49v49l-20 -43q-25 -55 -86 -55q-60 0 -80 41l-19 43v-9q0 -75 -77 -75h-263q-75 0 -75 49q0 50 28 88t49 41q6 2 21 2l4 41v403q0 15 -1 29.5t-1 15.5l-21 4l9 -61q9 -80 -45 -80
q-57 0 -95 33q-12 11 -26.5 40t-32.5 40q-15 10 -68 10v-475q1 0 8 -1t13 -1q74 -13 74 -82v-21q0 -36 -20.5 -55.5t-57.5 -19.5h-324q-76 0 -76 49q0 52 33 90q36 39 49 39t15 -2q-8 12 -8 41v438q-47 0 -65 -10t-24 -41q-15 -72 -84 -72h-20q-38 0 -57.5 21t-16.5 59
l21 170q6 74 80 74h944q63 0 90 -58l168 -350l162 350q27 58 90 58h225q78 0 78 -54q0 -52 -41 -90l-37 -36l-1 -2q-2 -1 -7 -1q-4 -2 -10 -2v-456q-2 -34 -11 -43l4 2q4 1 10.5 2.5t14.5 1.5zM1604 803v100l-103 -217l35 37q39 37 49 39q6 0 10 2zM1182 901v-143q18 5 67 2
z" />
    <glyph glyph-name="uni2160" unicode="&#x2160;" 
d="M1352 -16h-594q-76 0 -76 69v13q0 54 37 94q39 36 98 39q51 3 72.5 13.5t21.5 31.5v1097v28q-3 6 -46 4q-26 -1 -44 -1q-59 -3 -102 37q-37 40 -37 94v4q0 37 19.5 57.5t56.5 20.5h594q37 0 57.5 -18t20.5 -51v-13q0 -52 -39 -94q-21 -19 -51.5 -28t-88.5 -15
q-35 -3 -47 -6v-19v-1097q0 -21 6 -25q36 -20 138 -20q82 -3 82 -76v-62q0 -37 -20.5 -57t-57.5 -20z" />
    <glyph glyph-name="uni2161" unicode="&#x2161;" 
d="M1626 -16h-1202q-76 0 -76 69v13q0 54 37 94q38 35 98 41q84 8 84 43v1095q0 7 -13.5 13.5t-45.5 12t-76 5.5q-84 3 -84 76v61q0 37 19.5 57.5t56.5 20.5h1202q37 0 57.5 -20.5t20.5 -57.5v-4q0 -52 -39 -94q-38 -35 -98 -41q-82 -9 -82 -29v-1095q0 -45 135 -45
q84 -3 84 -76v-62q0 -37 -20.5 -57t-57.5 -20zM713 1393q2 15 14 39h-33q18 -37 19 -39zM1339 1397q1 3 17 35h-29zM930 199h217q30 0 38.5 8t8.5 37v1095q0 20 -8.5 26.5t-38.5 6.5h-217q-42 0 -56 -8t-14 -25v-1095q0 -27 13.5 -36t56.5 -9zM688 139h43q-11 19 -18 47
q-7 -22 -25 -47zM1323 139h39q-12 15 -23 43q-8 -30 -16 -43z" />
    <glyph glyph-name="uni2162" unicode="&#x2162;" 
d="M1749 -16h-1444q-37 0 -56.5 20t-19.5 57v60q0 37 19.5 57.5t56.5 20.5h84q28 0 36.5 8t8.5 37v1095q0 21 -7.5 27t-37.5 6h-84q-76 0 -76 76v59q0 37 19.5 57.5t56.5 20.5h1444q37 0 57.5 -20.5t20.5 -57.5v-59q0 -37 -20.5 -56.5t-57.5 -19.5h-84q-36 0 -45.5 -7
t-9.5 -26v-1095q0 -28 10 -36.5t45 -8.5h84q37 0 57.5 -20.5t20.5 -57.5v-60q0 -37 -20.5 -57t-57.5 -20zM580 1399q1 5 12 33h-25zM1022 1397q2 11 14 35h-30q13 -26 16 -35zM1462 1399q10 24 15 33h-27q11 -27 12 -33zM799 199q46 0 62 10t16 35v1095q0 33 -78 33
q-44 0 -59 -8t-15 -25v-1095q0 -26 15 -35.5t59 -9.5zM1243 199q45 0 60.5 10t15.5 35v1095q0 17 -16 25t-60 8q-45 0 -60.5 -8.5t-15.5 -24.5v-1095q0 -26 15 -35.5t61 -9.5zM1001 139h39q-12 17 -18 43q-10 -26 -21 -43zM563 139h33q-12 23 -16 41q-4 -14 -17 -41z
M1446 139h33q-12 25 -17 41q-6 -21 -16 -41z" />
    <glyph glyph-name="uni2163" unicode="&#x2163;" 
d="M764 -16h-584q-76 0 -76 69v13q0 54 37 94q39 36 99 39q77 5 77 20v1120q0 13 -6.5 18.5t-33.5 9t-87 3.5q-86 3 -86 78v59q0 37 19.5 57.5t56.5 20.5h1102q37 0 57.5 -18t20.5 -51v-13q0 -52 -39 -94q-41 -38 -94 -41q-16 0 -36 -0.5t-33.5 -1t-14.5 -0.5v-6v-2
l239 -783l226 787q-32 8 -90 8q-82 3 -82 76v61q0 37 19.5 57.5t55.5 20.5h435q77 0 77 -69v-13q0 -53 -38 -94q-38 -35 -99 -41q-65 -6 -65 -29l-371 -1290q-18 -65 -86 -65h-37q-68 0 -86 65l-389 1266q-20 57 -41 57h-143q-34 0 -46 -8t-12 -25v-1120q0 -20 146 -20
q86 -3 86 -78v-60q0 -37 -20.5 -57t-57.5 -20zM463 1397q7 21 14 35h-26q9 -18 12 -35zM989 1386q3 25 12 46h-34q14 -24 22 -46zM1329 283l14 -47l15 47h-29zM451 139h22q-8 15 -10 27q-9 -24 -12 -27z" />
    <glyph glyph-name="uni2164" unicode="&#x2164;" 
d="M1063 -12h-33q-64 0 -88 61l-473 1247q-19 47 -52 60.5t-132 13.5q-82 3 -82 78v59q0 37 19.5 57.5t56.5 20.5h589q37 0 57.5 -18t20.5 -51v-13q0 -52 -39 -94q-43 -40 -100 -37q-57 0 -57 2q0 -8 6 -20l342 -883l358 895q-15 0 -65 4q-56 3 -95 39q-36 39 -36 94v4
q0 37 19.5 57.5t55.5 20.5h494q37 0 57.5 -18t20.5 -51v-13q0 -52 -39 -94q-39 -36 -99 -39q-55 -3 -76.5 -12.5t-29.5 -30.5l-512 -1278q-24 -61 -88 -61zM596 1389q0 15 8 43h-35q3 -5 13 -19.5t14 -23.5z" />
    <glyph glyph-name="uni2165" unicode="&#x2165;" 
d="M817 -16h-37q-69 0 -86 65l-399 1264q-15 38 -33 47.5t-76 9.5q-82 3 -82 78v59q0 37 19.5 57.5t56.5 20.5h498q37 0 57.5 -18t20.5 -51v-13q0 -52 -39 -94q-42 -39 -86 -39h-47v-6l252 -809l243 805v2q-48 8 -114 8q-82 3 -82 78v59q0 37 19.5 57.5t55.5 20.5h990
q37 0 57 -20.5t20 -57.5v-4q0 -53 -38 -94q-39 -36 -101 -39q-34 -1 -49 -5t-17.5 -9t-2.5 -17v-1124q0 -2 12 -5.5t42.5 -7t70.5 -3.5q83 -3 83 -76v-62q0 -37 -20 -57t-57 -20h-557q-76 0 -76 69v13q0 54 37 94q38 35 98 41q23 1 41 4t25.5 6t7.5 4v1124q0 20 -13.5 26.5
t-64.5 6.5q-69 0 -100 -5t-42 -15t-18 -35l-383 -1268q-18 -65 -86 -65zM430 1386q4 32 10 46h-32q5 -8 12 -24t10 -22zM1669 1399q3 18 12 33h-24zM784 270l13 -41l14 41h-27zM1659 139h20q-6 9 -10 25q-4 -16 -10 -25z" />
    <glyph glyph-name="uni2166" unicode="&#x2166;" 
d="M729 -16h-47q-68 0 -86 65l-371 1278q-8 30 -20 36.5t-68 6.5q-84 3 -84 78v59q0 37 19.5 57.5t56.5 20.5h473q37 0 57.5 -18t20.5 -51v-13q0 -52 -39 -94q-39 -36 -82 -39q-28 -2 -39 -6l213 -760l203 764q-2 0 -17.5 1t-31.5 1q-82 3 -82 76v61q0 37 19.5 57.5
t56.5 20.5h1104q37 0 57 -20.5t20 -57.5v-4q0 -52 -39 -94q-38 -35 -90 -41q-13 -2 -22.5 -5t-13 -5.5t-3.5 -3.5v-1139q0 -3 7 -6t27 -6.5t48 -3.5q86 -3 86 -76v-62q0 -37 -20 -57t-57 -20h-883q-76 0 -76 69v13q0 54 37 94q38 35 96 41q58 9 58 14v1139q0 11 -6.5 14.5
t-32.5 3.5t-33 -31l-338 -1273v-7q0 -37 -20.5 -57t-57.5 -20zM362 1403q0 11 7 29h-19zM1362 1407q2 10 10 25h-18q4 -7 8 -25zM1747 1401q3 16 12 31h-22q2 -5 5 -15.5t5 -15.5zM1556 199q29 0 36 3t7 13v1139q0 7 -2 10t-11.5 5.5t-29.5 2.5q-21 0 -32 -2.5t-13 -6
t-2 -9.5v-1139q0 -6 2 -9t12.5 -5t32.5 -2zM684 293l12 -41l11 41h-23zM1737 139h22q-8 11 -12 29q-2 -4 -5 -14.5t-5 -14.5zM1350 139h22q-8 15 -10 25z" />
    <glyph glyph-name="uni2167" unicode="&#x2167;" 
d="M602 -16h-49q-72 0 -84 69l-285 1293q-4 24 -65 24q-84 3 -84 76v61q0 37 19.5 57.5t56.5 20.5h421q37 0 57.5 -18t20.5 -51v-13q0 -52 -39 -94q-42 -39 -65 -39h-27l129 -661l148 663q-1 0 -5 -0.5t-9 -0.5t-9 1q-37 0 -56.5 21t-19.5 57v57q0 37 19.5 57.5t56.5 20.5
h1288q37 0 57.5 -20.5t20.5 -57.5v-4q0 -52 -39 -94q-38 -35 -82 -41q-30 -2 -30 -12v-1141q0 -16 63 -16q88 -3 88 -76v-62q0 -37 -20.5 -57t-57.5 -20h-1140q-76 0 -76 69v13q0 54 37 94q34 32 92 41q45 9 45 14v1145v12h-6l-293 -1311q0 -37 -20.5 -57t-57.5 -20z
M328 1403q1 5 4 14.5t4 14.5h-21q1 -3 6.5 -13t6.5 -16zM1124 1415l6 17h-10q4 -12 4 -17zM1462 1413l6 19h-12zM1800 1409l10 23h-16zM1292 199q19 0 22 2t3 14v1145q0 9 -2.5 10.5t-22.5 1.5q-21 0 -21 -3v-3q1 -4 1 -6v-1145q0 -14 1.5 -15t18.5 -1zM1632 199h6
q13 0 15 2t2 14v1141v5q0 8 -2.5 9.5t-20.5 1.5q-17 0 -19.5 -1t-2.5 -6v-5v-1145q0 -14 3 -15t19 -1zM567 317l6 -26l7 26h-13zM1112 139h21q-6 9 -9 25q-7 -17 -12 -25zM1792 139h18q-2 3 -5 11.5t-5 11.5q-4 -18 -8 -23zM1454 139h16q-4 7 -8 21q-4 -14 -8 -21z" />
    <glyph glyph-name="uni2168" unicode="&#x2168;" 
d="M1094 -16h-926q-76 0 -76 69v13q0 54 37 94q39 36 100 39q88 2 88 16v1124q0 13 -7.5 18.5t-37 9t-94.5 3.5q-86 3 -86 78v59q0 37 19.5 57.5t56.5 20.5h1098q77 0 77 -69v-13q0 -53 -38 -94q-39 -36 -97 -39q-39 -2 -82 -8l197 -324l225 328q-20 4 -43 4q-80 3 -80 76
v61q0 37 19.5 57.5t56.5 20.5h414q37 0 57.5 -18t20.5 -51v-13q0 -52 -39 -94q-39 -36 -96 -39q-43 -3 -63 -16t-40 -47l-315 -459l360 -592q12 -21 47 -49q8 -8 90 -8q82 -3 82 -76v-62q0 -37 -20 -57t-57 -20h-558q-75 0 -75 69v13q0 54 37 94q39 36 96 39q54 7 63 10
l-237 389l-267 -393q54 -6 89 -6q81 -3 81 -76v-62q0 -37 -20 -57t-57 -20zM463 1399l12 33h-24q8 -14 12 -33zM958 1401q0 6 5 31h-29zM649 199q67 0 86.5 7.5t48.5 43.5l367 536l-311 514q-23 40 -65 56t-120 16q-29 0 -37 -6.5t-8 -26.5v-1124q0 -11 5.5 -13.5t33.5 -2.5
zM1669 139h29q-14 14 -23 29q0 -5 -6 -29zM455 139h16q0 1 -3.5 9.5t-4.5 13.5q-1 -5 -4.5 -13.5t-3.5 -9.5z" />
    <glyph glyph-name="uni2169" unicode="&#x2169;" 
d="M840 -16h-459q-76 0 -76 69v13q0 54 37 94q39 36 96 39q64 3 98.5 17t77.5 54l334 473l-370 549l-58 64q-33 14 -135 14q-80 3 -80 76v61q0 37 19.5 57.5t56.5 20.5h555q37 0 57.5 -18t20.5 -51v-13q0 -53 -41 -94q-36 -36 -76 -39q-23 0 -35 -4l258 -381l273 383
q-10 2 -45 2q-80 3 -80 76v61q0 37 19.5 57.5t55.5 20.5h461q37 0 57.5 -20.5t20.5 -57.5v-4q0 -52 -39 -94q-39 -36 -96 -39q-61 -3 -90.5 -16.5t-59.5 -50.5l-354 -500l367 -541q26 -37 65 -50t125 -13q82 -3 82 -78v-60q0 -37 -20.5 -57t-57.5 -20h-555q-75 0 -75 69v13
q0 55 36 94q43 40 78 37q27 0 35 -4l-252 368l-252 -356q6 -6 15 -6q11 -2 29 -4t25 -3.5t15.5 -6.5t11.5 -14.5t3 -25.5v-84q0 -37 -20.5 -57t-57.5 -20zM659 1432l35 -37q0 13 4 37h-39zM1475 139h38q-13 12 -30 37q0 -17 -8 -37z" />
    <glyph glyph-name="uni2170" unicode="&#x2170;" 
d="M1042 1268q-69 0 -113 44.5t-44 114.5q0 68 44.5 114t112.5 46q67 0 114.5 -46.5t47.5 -113.5q0 -68 -47 -113.5t-115 -45.5zM1042 1434h-6q0 -1 1 -3.5t1 -3.5q0 -8 -4 -8q1 0 3.5 1t4.5 1q1 0 4 -1t5 -1v8v7h-9zM1034 1419zM1171 154h74q37 0 57.5 -20.5t20.5 -57.5
v-45q0 -37 -20.5 -57.5t-57.5 -20.5h-377q-36 0 -55.5 20.5t-19.5 57.5v45q0 78 73 78h74l1 4q1 4 1 8v649q0 12 -6 12h-98q-76 0 -76 76v29q0 66 69 84q83 18 148 63q54 33 96 33h19q37 0 57 -20.5t20 -57.5v-868v-12z" />
    <glyph glyph-name="uni2170" unicode="&#xf6c5;" 
d="M1042 1268q-69 0 -113 44.5t-44 114.5q0 68 44.5 114t112.5 46q67 0 114.5 -46.5t47.5 -113.5q0 -68 -47 -113.5t-115 -45.5zM1042 1434h-6q0 -1 1 -3.5t1 -3.5q0 -8 -4 -8q1 0 3.5 1t4.5 1q1 0 4 -1t5 -1v8v7h-9zM1034 1419zM1171 154h74q37 0 57.5 -20.5t20.5 -57.5
v-45q0 -37 -20.5 -57.5t-57.5 -20.5h-377q-36 0 -55.5 20.5t-19.5 57.5v45q0 78 73 78h74l1 4q1 4 1 8v649q0 12 -6 12h-98q-76 0 -76 76v29q0 66 69 84q83 18 148 63q54 33 96 33h19q37 0 57 -20.5t20 -57.5v-868v-12z" />
    <glyph glyph-name="uni2171" unicode="&#x2171;" 
d="M786 1268q-69 0 -113 44.5t-44 114.5q0 68 44.5 114t112.5 46q67 0 114.5 -46.5t47.5 -113.5q0 -68 -47 -113.5t-115 -45.5zM1307 1268q-69 0 -113.5 44.5t-44.5 114.5q0 68 45 114t113 46q66 0 113.5 -46.5t47.5 -113.5q0 -68 -46.5 -113.5t-114.5 -45.5zM786 1434h-6
q0 -1 1 -3.5t1 -3.5q0 -8 -4 -8q1 0 3.5 1t4.5 1q1 0 4 -1t5 -1v8v7h-9zM1307 1434h-7q0 -1 1.5 -3.5t1.5 -3.5q0 -8 -5 -8q1 0 4 1t5 1q1 0 3.5 -1t4.5 -1v8v7h-8zM778 1419zM1298 1419zM1436 154h73q37 0 57.5 -20.5t20.5 -57.5v-45q0 -37 -20.5 -57.5t-57.5 -20.5h-897
q-36 0 -55.5 20.5t-19.5 57.5v45q0 78 73 78h74l1 4q1 4 1 8v649q0 12 -6 12h-98q-76 0 -76 76v29q0 66 69 84q83 18 148 63q54 33 96 33h19q37 0 57 -20.5t20 -57.5v-868v-12h289l1 4q1 4 1 8v649q0 12 -6 12h-98q-76 0 -76 76v29q0 66 70 84q81 18 147 63q54 33 96 33h19
q37 0 57.5 -20.5t20.5 -57.5v-868v-12z" />
    <glyph glyph-name="uni2171" unicode="&#xf6c6;" 
d="M786 1268q-69 0 -113 44.5t-44 114.5q0 68 44.5 114t112.5 46q67 0 114.5 -46.5t47.5 -113.5q0 -68 -47 -113.5t-115 -45.5zM1307 1268q-69 0 -113.5 44.5t-44.5 114.5q0 68 45 114t113 46q66 0 113.5 -46.5t47.5 -113.5q0 -68 -46.5 -113.5t-114.5 -45.5zM786 1434h-6
q0 -1 1 -3.5t1 -3.5q0 -8 -4 -8q1 0 3.5 1t4.5 1q1 0 4 -1t5 -1v8v7h-9zM1307 1434h-7q0 -1 1.5 -3.5t1.5 -3.5q0 -8 -5 -8q1 0 4 1t5 1q1 0 3.5 -1t4.5 -1v8v7h-8zM778 1419zM1298 1419zM1436 154h73q37 0 57.5 -20.5t20.5 -57.5v-45q0 -37 -20.5 -57.5t-57.5 -20.5h-897
q-36 0 -55.5 20.5t-19.5 57.5v45q0 78 73 78h74l1 4q1 4 1 8v649q0 12 -6 12h-98q-76 0 -76 76v29q0 66 69 84q83 18 148 63q54 33 96 33h19q37 0 57 -20.5t20 -57.5v-868v-12h289l1 4q1 4 1 8v649q0 12 -6 12h-98q-76 0 -76 76v29q0 66 70 84q81 18 147 63q54 33 96 33h19
q37 0 57.5 -20.5t20.5 -57.5v-868v-12z" />
    <glyph glyph-name="uni2172" unicode="&#x2172;" 
d="M539 1268q-69 0 -113.5 44.5t-44.5 114.5q0 68 45 114t113 46q66 0 113.5 -46.5t47.5 -113.5q0 -68 -46.5 -113.5t-114.5 -45.5zM1042 1268q-69 0 -113 44.5t-44 114.5q0 68 44.5 114t112.5 46q67 0 114.5 -46.5t47.5 -113.5q0 -68 -47 -113.5t-115 -45.5zM1546 1268
q-67 0 -112 45.5t-45 113.5q0 66 45.5 113t111.5 47q68 0 115 -46.5t47 -113.5q0 -68 -47 -113.5t-115 -45.5zM539 1434h-7q0 -1 1.5 -3.5t1.5 -3.5q0 -8 -5 -8q1 0 4 1t5 1q1 0 3.5 -1t4.5 -1v8v7h-8zM1042 1434h-6q0 -1 1 -3.5t1 -3.5q0 -8 -4 -8q1 0 3.5 1t4.5 1
q1 0 4 -1t5 -1v8v7h-9zM1540 1434q0 -1 1 -3.5t1 -3.5q0 -2 -1 -4.5t-1 -3.5q1 0 3 1t3 1q10 0 10 -2q0 1 -1 3.5t-1 4.5v7h-8h-6zM530 1419zM1034 1419zM1675 154h74q37 0 57.5 -20.5t20.5 -57.5v-45q0 -37 -20.5 -57.5t-57.5 -20.5h-1384q-37 0 -56.5 20.5t-19.5 57.5v45
q0 78 73 78h74l1 4q1 4 1 8v649q0 12 -6 12h-98q-76 0 -76 76v29q0 66 70 84q81 18 147 63q54 33 96 33h19q37 0 57.5 -20.5t20.5 -57.5v-868v-12h272l1 4q1 4 1 8v649q0 12 -6 12h-98q-76 0 -76 76v29q0 66 69 84q83 18 148 63q54 33 96 33h19q37 0 57 -20.5t20 -57.5v-868
v-12h273l1 4q1 4 1 8v649q0 12 -6 12h-99q-75 0 -75 76v29q0 66 69 84q83 18 148 63q54 33 96 33h18q37 0 57.5 -20.5t20.5 -57.5v-868v-12z" />
    <glyph glyph-name="uni2172" unicode="&#xf6c7;" 
d="M539 1268q-69 0 -113.5 44.5t-44.5 114.5q0 68 45 114t113 46q66 0 113.5 -46.5t47.5 -113.5q0 -68 -46.5 -113.5t-114.5 -45.5zM1042 1268q-69 0 -113 44.5t-44 114.5q0 68 44.5 114t112.5 46q67 0 114.5 -46.5t47.5 -113.5q0 -68 -47 -113.5t-115 -45.5zM1546 1268
q-67 0 -112 45.5t-45 113.5q0 66 45.5 113t111.5 47q68 0 115 -46.5t47 -113.5q0 -68 -47 -113.5t-115 -45.5zM539 1434h-7q0 -1 1.5 -3.5t1.5 -3.5q0 -8 -5 -8q1 0 4 1t5 1q1 0 3.5 -1t4.5 -1v8v7h-8zM1042 1434h-6q0 -1 1 -3.5t1 -3.5q0 -8 -4 -8q1 0 3.5 1t4.5 1
q1 0 4 -1t5 -1v8v7h-9zM1540 1434q0 -1 1 -3.5t1 -3.5q0 -2 -1 -4.5t-1 -3.5q1 0 3 1t3 1q10 0 10 -2q0 1 -1 3.5t-1 4.5v7h-8h-6zM530 1419zM1034 1419zM1675 154h74q37 0 57.5 -20.5t20.5 -57.5v-45q0 -37 -20.5 -57.5t-57.5 -20.5h-1384q-37 0 -56.5 20.5t-19.5 57.5v45
q0 78 73 78h74l1 4q1 4 1 8v649q0 12 -6 12h-98q-76 0 -76 76v29q0 66 70 84q81 18 147 63q54 33 96 33h19q37 0 57.5 -20.5t20.5 -57.5v-868v-12h272l1 4q1 4 1 8v649q0 12 -6 12h-98q-76 0 -76 76v29q0 66 69 84q83 18 148 63q54 33 96 33h19q37 0 57 -20.5t20 -57.5v-868
v-12h273l1 4q1 4 1 8v649q0 12 -6 12h-99q-75 0 -75 76v29q0 66 69 84q83 18 148 63q54 33 96 33h18q37 0 57.5 -20.5t20.5 -57.5v-868v-12z" />
    <glyph glyph-name="uni2173" unicode="&#x2173;" 
d="M649 1268q-67 0 -112 45.5t-45 113.5q0 67 45 113.5t112 46.5q69 0 115.5 -45.5t46.5 -114.5q0 -70 -46 -114.5t-116 -44.5zM659 1419q-2 2 -2 8q0 2 1 4q-6 3 -9 3h-6q0 -1 1 -3.5t1 -3.5t-1 -3.5t-1 -4.5q1 0 3 1t3 1zM854 -47h-379q-37 0 -56.5 20.5t-19.5 57.5v45
q0 78 74 78h76l1 4q1 4 1 8v649q0 12 -6 12h-99q-75 0 -75 76v29q0 66 69 84q82 18 146 61q47 35 96 35h20q38 0 58 -20.5t20 -57.5v-868v-12h74q37 0 57.5 -20.5t20.5 -57.5v-45q0 -37 -20.5 -57.5t-57.5 -20.5zM1364 -94h-21q-65 0 -86 63l-284 858q-12 38 -24.5 48
t-43.5 10q-80 3 -80 78v45q0 37 19.5 57t56.5 20h352q37 0 57.5 -20t20.5 -57v-45q0 -76 -63 -76h-62q1 -2 2 -6.5t2 -6.5l160 -489l170 492q2 4 2 10q-8 0 -12 -2q-38 0 -58 20.5t-20 57.5v45q0 37 19.5 57t56.5 20h307q37 0 57.5 -20t20.5 -57v-45q0 -36 -17.5 -56
t-48.5 -20h-65q1 0 -6 -11.5t-17 -28t-14 -24.5l-305 -854q-21 -63 -47 -63h-25h-4zM1759 1040v-4q12 4 23 4h-23z" />
    <glyph glyph-name="uni2173" unicode="&#xf6c8;" 
d="M649 1268q-67 0 -112 45.5t-45 113.5q0 67 45 113.5t112 46.5q69 0 115.5 -45.5t46.5 -114.5q0 -70 -46 -114.5t-116 -44.5zM659 1419q-2 2 -2 8q0 2 1 4q-6 3 -9 3h-6q0 -1 1 -3.5t1 -3.5t-1 -3.5t-1 -4.5q1 0 3 1t3 1zM854 -47h-379q-37 0 -56.5 20.5t-19.5 57.5v45
q0 78 74 78h76l1 4q1 4 1 8v649q0 12 -6 12h-99q-75 0 -75 76v29q0 66 69 84q82 18 146 61q47 35 96 35h20q38 0 58 -20.5t20 -57.5v-868v-12h74q37 0 57.5 -20.5t20.5 -57.5v-45q0 -37 -20.5 -57.5t-57.5 -20.5zM1364 -94h-21q-65 0 -86 63l-284 858q-12 38 -24.5 48
t-43.5 10q-80 3 -80 78v45q0 37 19.5 57t56.5 20h352q37 0 57.5 -20t20.5 -57v-45q0 -76 -63 -76h-62q1 -2 2 -6.5t2 -6.5l160 -489l170 492q2 4 2 10q-8 0 -12 -2q-38 0 -58 20.5t-20 57.5v45q0 37 19.5 57t56.5 20h307q37 0 57.5 -20t20.5 -57v-45q0 -36 -17.5 -56
t-48.5 -20h-65q1 0 -6 -11.5t-17 -28t-14 -24.5l-305 -854q-21 -63 -47 -63h-25h-4zM1759 1040v-4q12 4 23 4h-23z" />
    <glyph glyph-name="uni2174" unicode="&#x2174;" 
d="M1057 -94h-4q-64 0 -88 61l-324 856q-17 38 -38.5 50t-72.5 12q-79 3 -79 76v47q0 77 75 77h430q37 0 57.5 -20t20.5 -57v-45q0 -37 -20.5 -56.5t-57.5 -19.5h-69q-3 0 -8 -1t-7 -1q0 -1 1 -2t1 -2l197 -535l205 535l-2 2q0 2 -70 2q-84 3 -84 78v45q0 37 19.5 57
t56.5 20h395q37 0 57.5 -16t20.5 -45v-6q0 -52 -39 -94q-14 -13 -30 -21.5t-27 -11.5t-37 -10q-20 -4 -32.5 -17.5t-26.5 -42.5l-332 -854q-24 -61 -88 -61z" />
    <glyph glyph-name="uni2174" unicode="&#xf6c9;" 
d="M1057 -94h-4q-64 0 -88 61l-324 856q-17 38 -38.5 50t-72.5 12q-79 3 -79 76v47q0 77 75 77h430q37 0 57.5 -20t20.5 -57v-45q0 -37 -20.5 -56.5t-57.5 -19.5h-69q-3 0 -8 -1t-7 -1q0 -1 1 -2t1 -2l197 -535l205 535l-2 2q0 2 -70 2q-84 3 -84 78v45q0 37 19.5 57
t56.5 20h395q37 0 57.5 -16t20.5 -45v-6q0 -52 -39 -94q-14 -13 -30 -21.5t-27 -11.5t-37 -10q-20 -4 -32.5 -17.5t-26.5 -42.5l-332 -854q-24 -61 -88 -61z" />
    <glyph glyph-name="uni2175" unicode="&#x2175;" 
d="M1563 1268q-69 0 -113.5 44.5t-44.5 114.5q0 68 45 114t113 46q66 0 113.5 -46.5t47.5 -113.5q0 -68 -46.5 -113.5t-114.5 -45.5zM1563 1434h-7q0 -1 1.5 -3.5t1.5 -3.5q0 -8 -5 -8q1 0 4 1t5 1q1 0 3.5 -1t4.5 -1v8v7h-8zM1554 1419zM1692 154h73q37 0 57.5 -20.5
t20.5 -57.5v-45q0 -37 -20.5 -57.5t-57.5 -20.5h-376q-37 0 -56.5 20.5t-19.5 57.5v45q0 78 73 78h74l1 4q1 4 1 8v649q0 12 -6 12h-98q-76 0 -76 76v29q0 66 70 84q81 18 147 63q54 33 96 33h19q37 0 57.5 -20.5t20.5 -57.5v-868v-12zM872 1085h306q37 0 57 -16t20 -45v-6
q0 -53 -38 -94q-13 -12 -26.5 -19t-36.5 -14t-32 -10q-23 -8 -43 -58l-297 -846q0 -71 -30 -71h-31q-3 -8 -8 -8t-8 8h-11q-65 0 -86 63l-293 860q-9 34 -21 45t-42 11q-82 3 -82 76v47q0 37 19.5 57t56.5 20h352q37 0 57.5 -20t20.5 -57v-45q0 -76 -64 -76h-63q1 -2 2 -6.5
t2 -6.5l164 -507l176 505l2 11v4q-17 -3 -49 0q-49 3 -49 80v41q0 77 75 77z" />
    <glyph glyph-name="uni2175" unicode="&#xf6ca;" 
d="M1563 1268q-69 0 -113.5 44.5t-44.5 114.5q0 68 45 114t113 46q66 0 113.5 -46.5t47.5 -113.5q0 -68 -46.5 -113.5t-114.5 -45.5zM1563 1434h-7q0 -1 1.5 -3.5t1.5 -3.5q0 -8 -5 -8q1 0 4 1t5 1q1 0 3.5 -1t4.5 -1v8v7h-8zM1554 1419zM1692 154h73q37 0 57.5 -20.5
t20.5 -57.5v-45q0 -37 -20.5 -57.5t-57.5 -20.5h-376q-37 0 -56.5 20.5t-19.5 57.5v45q0 78 73 78h74l1 4q1 4 1 8v649q0 12 -6 12h-98q-76 0 -76 76v29q0 66 70 84q81 18 147 63q54 33 96 33h19q37 0 57.5 -20.5t20.5 -57.5v-868v-12zM872 1085h306q37 0 57 -16t20 -45v-6
q0 -53 -38 -94q-13 -12 -26.5 -19t-36.5 -14t-32 -10q-23 -8 -43 -58l-297 -846q0 -71 -30 -71h-31q-3 -8 -8 -8t-8 8h-11q-65 0 -86 63l-293 860q-9 34 -21 45t-42 11q-82 3 -82 76v47q0 37 19.5 57t56.5 20h352q37 0 57.5 -20t20.5 -57v-45q0 -76 -64 -76h-63q1 -2 2 -6.5
t2 -6.5l164 -507l176 505l2 11v4q-17 -3 -49 0q-49 3 -49 80v41q0 77 75 77z" />
    <glyph glyph-name="uni2176" unicode="&#x2176;" 
d="M1300 1268q-69 0 -113 44.5t-44 114.5q0 68 44.5 114t112.5 46q67 0 114.5 -46.5t47.5 -113.5q0 -68 -47 -113.5t-115 -45.5zM1763 1268q-67 0 -112 45.5t-45 113.5q0 67 45 113.5t112 46.5q69 0 115.5 -45.5t46.5 -114.5q0 -70 -46 -114.5t-116 -44.5zM1300 1434h-6
q0 -1 1 -3.5t1 -3.5q0 -8 -4 -8q1 0 3.5 1t4.5 1q1 0 4 -1t5 -1v8v7h-9zM1757 1434q0 -1 1 -3.5t1 -3.5t-1 -3.5t-1 -4.5q1 0 3 1t3 1l11 -2q-2 2 -2 8q0 2 1 4q-6 3 -10 3h-6zM1292 1419zM1913 154h47q37 0 57.5 -20.5t20.5 -57.5v-45q0 -37 -20.5 -57.5t-57.5 -20.5h-789
q-36 0 -55.5 20.5t-19.5 57.5v45q0 78 61 78h62q0 2 1 6t1 6v649v12h-76q-76 0 -76 33v35l-10 -8q-44 0 -56.5 -9.5t-33.5 -54.5l-303 -848q0 -69 -37 -69h-35q-4 -8 -8 0h-19q-65 0 -86 63l-284 858q-12 38 -24.5 48t-43.5 10q-80 3 -80 78v45q0 37 19.5 57t56.5 20h352
q37 0 57.5 -20t20.5 -57v-45q0 -76 -63 -76h-62q1 -2 2 -6.5t2 -6.5l160 -493l170 491l2 11l-2 2h-10q-78 3 -78 78v45q0 37 19.5 57t56.5 20h307q78 0 78 -34v-35q63 18 114 57q48 39 97 39h24q37 0 57.5 -20.5t20.5 -57.5v-868v-12h231l1 4q1 4 1 8v649v12h-75
q-76 0 -76 76v29q0 63 67 84q66 18 117 57q48 39 96 39h23q37 0 57.5 -20.5t20.5 -57.5v-868v-12z" />
    <glyph glyph-name="uni2176" unicode="&#xf6cb;" 
d="M1300 1268q-69 0 -113 44.5t-44 114.5q0 68 44.5 114t112.5 46q67 0 114.5 -46.5t47.5 -113.5q0 -68 -47 -113.5t-115 -45.5zM1763 1268q-67 0 -112 45.5t-45 113.5q0 67 45 113.5t112 46.5q69 0 115.5 -45.5t46.5 -114.5q0 -70 -46 -114.5t-116 -44.5zM1300 1434h-6
q0 -1 1 -3.5t1 -3.5q0 -8 -4 -8q1 0 3.5 1t4.5 1q1 0 4 -1t5 -1v8v7h-9zM1757 1434q0 -1 1 -3.5t1 -3.5t-1 -3.5t-1 -4.5q1 0 3 1t3 1l11 -2q-2 2 -2 8q0 2 1 4q-6 3 -10 3h-6zM1292 1419zM1913 154h47q37 0 57.5 -20.5t20.5 -57.5v-45q0 -37 -20.5 -57.5t-57.5 -20.5h-789
q-36 0 -55.5 20.5t-19.5 57.5v45q0 78 61 78h62q0 2 1 6t1 6v649v12h-76q-76 0 -76 33v35l-10 -8q-44 0 -56.5 -9.5t-33.5 -54.5l-303 -848q0 -69 -37 -69h-35q-4 -8 -8 0h-19q-65 0 -86 63l-284 858q-12 38 -24.5 48t-43.5 10q-80 3 -80 78v45q0 37 19.5 57t56.5 20h352
q37 0 57.5 -20t20.5 -57v-45q0 -76 -63 -76h-62q1 -2 2 -6.5t2 -6.5l160 -493l170 491l2 11l-2 2h-10q-78 3 -78 78v45q0 37 19.5 57t56.5 20h307q78 0 78 -34v-35q63 18 114 57q48 39 97 39h24q37 0 57.5 -20.5t20.5 -57.5v-868v-12h231l1 4q1 4 1 8v649v12h-75
q-76 0 -76 76v29q0 63 67 84q66 18 117 57q48 39 96 39h23q37 0 57.5 -20.5t20.5 -57.5v-868v-12z" />
    <glyph glyph-name="uni2177" unicode="&#x2177;" 
d="M1083 1268q-67 0 -112 45.5t-45 113.5q0 67 45 113.5t112 46.5q69 0 115.5 -45.5t46.5 -114.5q0 -70 -46 -114.5t-116 -44.5zM1460 1268q-67 0 -112 45.5t-45 113.5q0 66 45.5 113t111.5 47q68 0 115 -46.5t47 -113.5q0 -68 -47 -113.5t-115 -45.5zM1829 1268
q-69 0 -113.5 45t-44.5 114t44.5 114.5t113.5 45.5q67 0 114.5 -46.5t47.5 -113.5q0 -68 -47 -113.5t-115 -45.5zM1077 1434q0 -1 1 -3.5t1 -3.5t-1 -3.5t-1 -4.5q1 0 3 1t3 1l11 -2q-2 2 -2 8q0 2 1 4q-6 3 -10 3h-6zM1454 1434q0 -1 1 -3.5t1 -3.5q0 -2 -1 -4.5t-1 -3.5
q1 0 3 1t3 1q10 0 10 -2q0 1 -1 3.5t-1 4.5v7h-8h-6zM1823 1434q0 -1 1 -3.5t1 -3.5q0 -4 -4 -8q1 0 3.5 1t4.5 1q1 0 3.5 -1t4.5 -1v8v7h-8h-6zM1978 154h45q37 0 57.5 -20.5t20.5 -57.5v-45q0 -37 -20.5 -57.5t-57.5 -20.5h-1067q-36 0 -55.5 20.5t-19.5 57.5v45
q0 78 59 78h61l1 4q2 4 2 8v649v12h-76q-76 0 -76 29v31h-4q-31 -40 -41 -60l-260 -856q-18 -65 -86 -65q-69 0 -84 67l-230 858q-11 37 -17.5 45.5t-25.5 8.5q-79 3 -79 78v45q0 77 75 77h303q37 0 57.5 -20t20.5 -57v-45q0 -76 -49 -76h-47v-15l107 -428l129 430l2 11
q-8 3 -20.5 9t-33 26t-20.5 43v45q0 37 19.5 57t56.5 20h270q78 0 78 -26v-25q19 8 63 39q48 39 97 39h22q37 0 57.5 -14.5t20.5 -40.5v-56q110 18 180 74q46 37 96 37h23q37 0 57.5 -14.5t20.5 -40.5v-53q105 18 170 69q48 39 96 39h25q37 0 57 -20.5t20 -57.5v-868v-12z
M328 1040v-6q15 6 34 6h-34zM819 1040v-4q16 4 29 4h-29zM1380 166v649v12h-147v-661v-12h145l1 4q1 4 1 8zM1749 166v649q0 8 -4 12h-135v-661v-12h137q0 2 1 6t1 6zM1624 98v49q-12 4 -14 5q0 -40 14 -54zM1735 152v-41q9 15 12 41h-12zM1657 98q13 18 -4 35
q-10 -9 -8.5 -19t12.5 -16z" />
    <glyph glyph-name="uni2177" unicode="&#xf6cc;" 
d="M1083 1268q-67 0 -112 45.5t-45 113.5q0 67 45 113.5t112 46.5q69 0 115.5 -45.5t46.5 -114.5q0 -70 -46 -114.5t-116 -44.5zM1460 1268q-67 0 -112 45.5t-45 113.5q0 66 45.5 113t111.5 47q68 0 115 -46.5t47 -113.5q0 -68 -47 -113.5t-115 -45.5zM1829 1268
q-69 0 -113.5 45t-44.5 114t44.5 114.5t113.5 45.5q67 0 114.5 -46.5t47.5 -113.5q0 -68 -47 -113.5t-115 -45.5zM1077 1434q0 -1 1 -3.5t1 -3.5t-1 -3.5t-1 -4.5q1 0 3 1t3 1l11 -2q-2 2 -2 8q0 2 1 4q-6 3 -10 3h-6zM1454 1434q0 -1 1 -3.5t1 -3.5q0 -2 -1 -4.5t-1 -3.5
q1 0 3 1t3 1q10 0 10 -2q0 1 -1 3.5t-1 4.5v7h-8h-6zM1823 1434q0 -1 1 -3.5t1 -3.5q0 -4 -4 -8q1 0 3.5 1t4.5 1q1 0 3.5 -1t4.5 -1v8v7h-8h-6zM1978 154h45q37 0 57.5 -20.5t20.5 -57.5v-45q0 -37 -20.5 -57.5t-57.5 -20.5h-1067q-36 0 -55.5 20.5t-19.5 57.5v45
q0 78 59 78h61l1 4q2 4 2 8v649v12h-76q-76 0 -76 29v31h-4q-31 -40 -41 -60l-260 -856q-18 -65 -86 -65q-69 0 -84 67l-230 858q-11 37 -17.5 45.5t-25.5 8.5q-79 3 -79 78v45q0 77 75 77h303q37 0 57.5 -20t20.5 -57v-45q0 -76 -49 -76h-47v-15l107 -428l129 430l2 11
q-8 3 -20.5 9t-33 26t-20.5 43v45q0 37 19.5 57t56.5 20h270q78 0 78 -26v-25q19 8 63 39q48 39 97 39h22q37 0 57.5 -14.5t20.5 -40.5v-56q110 18 180 74q46 37 96 37h23q37 0 57.5 -14.5t20.5 -40.5v-53q105 18 170 69q48 39 96 39h25q37 0 57 -20.5t20 -57.5v-868v-12z
M328 1040v-6q15 6 34 6h-34zM819 1040v-4q16 4 29 4h-29zM1380 166v649v12h-147v-661v-12h145l1 4q1 4 1 8zM1749 166v649q0 8 -4 12h-135v-661v-12h137q0 2 1 6t1 6zM1624 98v49q-12 4 -14 5q0 -40 14 -54zM1735 152v-41q9 15 12 41h-12zM1657 98q13 18 -4 35
q-10 -9 -8.5 -19t12.5 -16z" />
    <glyph glyph-name="uni2178" unicode="&#x2178;" 
d="M442 1268q-69 0 -113 44.5t-44 114.5q0 68 44.5 114t112.5 46t115 -46.5t47 -113.5q0 -68 -47 -113.5t-115 -45.5zM442 1434h-6q0 -1 1 -3.5t1 -3.5q0 -8 -4 -8q1 0 3.5 1t4.5 1q11 0 11 -2q0 1 -1 3.5t-1 4.5v7h-9zM434 1419zM1808 154h70q37 0 57.5 -20.5t20.5 -57.5
v-45q0 -37 -20.5 -57.5t-57.5 -20.5h-477q-37 0 -56.5 20.5t-19.5 57.5v45q0 78 61 78h62l-168 202l-162 -202h33q37 0 57.5 -20.5t20.5 -57.5v-45q0 -37 -20.5 -57.5t-57.5 -20.5h-883q-36 0 -55.5 20.5t-19.5 57.5v45q0 78 73 78h74l1 4q1 4 1 8v649q0 12 -6 12h-98
q-76 0 -76 76v29q0 66 69 84q83 18 148 63q54 33 96 33h19q37 0 57 -20.5t20 -57.5v-868v-12h74q35 0 56.5 -5.5t21.5 -13.5v-18q30 30 90 39q44 10 100 69l232 295l-223 275q-6 8 -20.5 25.5t-17 21t-13.5 14.5t-14 12t-14.5 7t-17.5 6t-22 2t-29 2h-37q-82 3 -82 78v45
q0 37 19.5 57t56.5 20h459q37 0 57.5 -20t20.5 -57v-45q0 -37 -16.5 -56.5t-45.5 -19.5h-59l145 -180l142 178h-11q-77 3 -77 76v47q0 77 75 77h377q37 0 57.5 -20t20.5 -57v-45q0 -37 -20.5 -56.5t-57.5 -19.5h-63q-21 0 -41.5 -15.5t-53.5 -54.5l-215 -272l265 -320
q33 -39 60 -55t58 -16z" />
    <glyph glyph-name="uni2178" unicode="&#xf6cd;" 
d="M442 1268q-69 0 -113 44.5t-44 114.5q0 68 44.5 114t112.5 46t115 -46.5t47 -113.5q0 -68 -47 -113.5t-115 -45.5zM442 1434h-6q0 -1 1 -3.5t1 -3.5q0 -8 -4 -8q1 0 3.5 1t4.5 1q11 0 11 -2q0 1 -1 3.5t-1 4.5v7h-9zM434 1419zM1808 154h70q37 0 57.5 -20.5t20.5 -57.5
v-45q0 -37 -20.5 -57.5t-57.5 -20.5h-477q-37 0 -56.5 20.5t-19.5 57.5v45q0 78 61 78h62l-168 202l-162 -202h33q37 0 57.5 -20.5t20.5 -57.5v-45q0 -37 -20.5 -57.5t-57.5 -20.5h-883q-36 0 -55.5 20.5t-19.5 57.5v45q0 78 73 78h74l1 4q1 4 1 8v649q0 12 -6 12h-98
q-76 0 -76 76v29q0 66 69 84q83 18 148 63q54 33 96 33h19q37 0 57 -20.5t20 -57.5v-868v-12h74q35 0 56.5 -5.5t21.5 -13.5v-18q30 30 90 39q44 10 100 69l232 295l-223 275q-6 8 -20.5 25.5t-17 21t-13.5 14.5t-14 12t-14.5 7t-17.5 6t-22 2t-29 2h-37q-82 3 -82 78v45
q0 37 19.5 57t56.5 20h459q37 0 57.5 -20t20.5 -57v-45q0 -37 -16.5 -56.5t-45.5 -19.5h-59l145 -180l142 178h-11q-77 3 -77 76v47q0 77 75 77h377q37 0 57.5 -20t20.5 -57v-45q0 -37 -20.5 -56.5t-57.5 -19.5h-63q-21 0 -41.5 -15.5t-53.5 -54.5l-215 -272l265 -320
q33 -39 60 -55t58 -16z" />
    <glyph glyph-name="uni2179" unicode="&#x2179;" 
d="M909 -47h-391q-37 0 -56.5 20.5t-19.5 57.5v45q0 37 19.5 57.5t56.5 20.5h41q22 0 54.5 20.5t58.5 50.5l233 295l-225 277q-47 58 -61 68q-24 19 -86 20h-35q-82 3 -82 78v45q0 37 19.5 57t56.5 20h458q37 0 57.5 -20t20.5 -57v-45q0 -76 -61 -76h-60l146 -180l141 178
h-10q-78 3 -78 76v47q0 37 19.5 57t56.5 20h377q37 0 57 -20t20 -57v-45q0 -37 -20 -56.5t-57 -19.5h-66q-19 0 -37 -14.5t-55 -57.5l-215 -270l264 -320q57 -71 119 -71h69q37 0 57.5 -20.5t20.5 -57.5v-45q0 -37 -20.5 -57.5t-57.5 -20.5h-479q-37 0 -56.5 20.5
t-19.5 57.5v45q0 78 62 78h63l-168 202l-161 -202h28q80 -3 80 -78v-45q0 -37 -20.5 -57.5t-57.5 -20.5zM559 -2h37v4q-24 -4 -37 -4z" />
    <glyph glyph-name="uni2179" unicode="&#xf6ce;" 
d="M909 -47h-391q-37 0 -56.5 20.5t-19.5 57.5v45q0 37 19.5 57.5t56.5 20.5h41q22 0 54.5 20.5t58.5 50.5l233 295l-225 277q-47 58 -61 68q-24 19 -86 20h-35q-82 3 -82 78v45q0 37 19.5 57t56.5 20h458q37 0 57.5 -20t20.5 -57v-45q0 -76 -61 -76h-60l146 -180l141 178
h-10q-78 3 -78 76v47q0 37 19.5 57t56.5 20h377q37 0 57 -20t20 -57v-45q0 -37 -20 -56.5t-57 -19.5h-66q-19 0 -37 -14.5t-55 -57.5l-215 -270l264 -320q57 -71 119 -71h69q37 0 57.5 -20.5t20.5 -57.5v-45q0 -37 -20.5 -57.5t-57.5 -20.5h-479q-37 0 -56.5 20.5
t-19.5 57.5v45q0 78 62 78h63l-168 202l-161 -202h28q80 -3 80 -78v-45q0 -37 -20.5 -57.5t-57.5 -20.5zM559 -2h37v4q-24 -4 -37 -4z" />
    <glyph glyph-name="arrowleft" unicode="&#x2190;" 
d="M535 371l-553 352q-37 23 -37 53t37 53l555 353q58 40 108 -13l6 -8q49 -49 8 -106l-110 -160h1540q37 0 57.5 -20.5t20.5 -57.5v-78q0 -36 -20.5 -55.5t-57.5 -19.5h-1546l114 -166q42 -57 -8 -107l-8 -8q-49 -52 -106 -12z" />
    <glyph glyph-name="arrowup" unicode="&#x2191;" 
d="M1102 -326h-78q-37 0 -56.5 20.5t-19.5 57.5v1505l-153 -106q-57 -41 -107 6l-8 8q-53 50 -16 107l348 588q23 40 53 40t53 -38l359 -592q34 -58 -17 -107l-8 -8q-50 -47 -106 -8l-166 115v-1510q0 -37 -20.5 -57.5t-57.5 -20.5z" />
    <glyph glyph-name="arrowright" unicode="&#x2192;" 
d="M2148 723l-555 -352q-57 -40 -106 12l-8 8q-50 50 -9 107l115 166h-1544q-37 0 -57.5 19.5t-20.5 55.5v78q0 37 20.5 57.5t57.5 20.5h1538l-111 160q-39 56 11 106l6 8q50 53 108 13l555 -353q37 -23 37 -53t-37 -53z" />
    <glyph glyph-name="arrowdown" unicode="&#x2193;" 
d="M1477 283l-359 -592q-23 -38 -53 -38t-53 40l-348 590q-38 59 16 106l8 8q50 47 107 6l153 -106v1503q0 37 19.5 57.5t56.5 20.5h78q37 0 57.5 -20.5t20.5 -57.5v-1509l166 115q56 38 106 -9l8 -8q51 -48 17 -106z" />
    <glyph glyph-name="uni2196" unicode="&#x2196;" 
d="M2089 -326h-39q-55 0 -96 41l-1620 1622l-33 -188q-12 -69 -82 -72h-10q-71 0 -86 66l-162 663q-11 43 10.5 63.5t65.5 10.5l659 -166q69 -18 66 -86v-12q-3 -70 -72 -82l-180 -33l1616 -1614q41 -41 41 -96v-39q0 -37 -20.5 -57.5t-57.5 -20.5z" />
    <glyph glyph-name="uni2197" unicode="&#x2197;" 
d="M78 -326h-37q-37 0 -57.5 20.5t-20.5 57.5v39q0 55 41 96l1602 1602l-172 29q-68 9 -74 79v11q-3 70 63 88l670 186q45 11 66.5 -10.5t9.5 -65.5l-170 -682q-18 -68 -88 -65h-10q-70 3 -82 71l-35 195l-1610 -1610q-41 -41 -96 -41z" />
    <glyph glyph-name="uni2198" unicode="&#x2198;" 
d="M2095 -328l-659 142q-71 15 -68 86v10q0 70 70 82l207 35l-1641 1640q-41 41 -41 96v37q0 37 20.5 57.5t57.5 20.5h37q55 0 96 -41l1632 -1632l27 180q9 69 80 72h10q70 3 88 -64l158 -643q10 -44 -10.5 -65.5t-63.5 -12.5z" />
    <glyph glyph-name="uni2199" unicode="&#x2199;" 
d="M692 -186l-657 -142q-43 -9 -63.5 12.5t-10.5 65.5l158 643q18 67 88 64h10q71 -3 80 -72l29 -178l1628 1630q41 41 96 41h39q37 0 57.5 -20.5t20.5 -57.5v-37q0 -55 -41 -96l-1645 -1642l207 -33q69 -12 72 -82v-10q3 -71 -68 -86z" />
    <glyph glyph-name="uni2215" unicode="&#x2215;" 
d="M604 -250l-78 37q-65 35 -34 104l929 1881q34 66 105 34l73 -37q66 -35 35 -104l-927 -1880q-36 -66 -103 -35z" />
    <glyph glyph-name="uni2215" unicode="&#xff0f;" 
d="M604 -250l-78 37q-65 35 -34 104l929 1881q34 66 105 34l73 -37q66 -35 35 -104l-927 -1880q-36 -66 -103 -35z" />
    <glyph glyph-name="radical" unicode="&#x221a;" 
d="M1413 1620l-903 -1866q-15 -30 -34.5 -40t-38 2.5t-29.5 45.5l-183 584l-12 -10q-31 -26 -60 -21.5t-49 39.5l-26 49q-35 60 18 107l232 201q34 29 62 21t42 -50l115 -360l710 1454q26 57 91 57h663q37 0 57.5 -20.5t20.5 -57.5v-59q0 -37 -20.5 -56.5t-57.5 -19.5h-598z
" />
    <glyph glyph-name="infinity" unicode="&#x221e;" 
d="M578 254q-136 0 -250.5 69t-181 188.5t-66.5 262.5q0 140 69.5 260.5t189 191t259.5 70.5q121 0 247 -80.5t206 -207.5q89 125 188 198q123 97 299 97q135 0 246.5 -69t175 -190t63.5 -268q0 -134 -67.5 -249t-182 -181.5t-247.5 -66.5q-151 0 -289 102q-54 39 -91 78.5
t-87 107.5q-74 -130 -213.5 -221.5t-267.5 -91.5zM1526 528q106 0 177 70.5t71 177.5q0 119 -68 198t-168 79q-108 0 -186 -55.5t-150 -184.5l-18 -33q92 -133 173 -192.5t169 -59.5zM578 504q194 0 317 235l16 35l-39 66q-47 81 -120 145q-85 62 -154 62
q-115 0 -191.5 -78.5t-76.5 -194.5q0 -112 72.5 -191t175.5 -79z" />
    <glyph glyph-name="orthogonal" unicode="&#x221f;" 
d="M1855 88h-1368q-75 0 -75 76v1339q0 37 19.5 57.5t55.5 20.5h97q37 0 57.5 -20.5t20.5 -57.5v-1165h1193q37 0 57.5 -20.5t20.5 -57.5v-96q0 -37 -20.5 -56.5t-57.5 -19.5z" />
    <glyph glyph-name="angle" unicode="&#x2220;" 
d="M1767 10h-1507q-52 0 -64 28.5t25 65.5l1456 1469q55 55 109 2l61 -59q57 -54 2 -109l-1144 -1149h1062q37 0 57.5 -20.5t20.5 -57.5v-94q0 -37 -20.5 -56.5t-57.5 -19.5z" />
    <glyph glyph-name="uni2223" unicode="&#x2223;" 
d="M1110 -317h-92q-37 0 -56.5 20t-19.5 57v2040q0 37 19.5 57.5t56.5 20.5h92q37 0 57.5 -20.5t20.5 -57.5v-2040q0 -37 -20.5 -57t-57.5 -20z" />
    <glyph glyph-name="uni2225" unicode="&#x2225;" 
d="M897 -317h-90q-37 0 -56.5 20t-19.5 57v2040q0 37 19.5 57.5t56.5 20.5h90q37 0 57.5 -20.5t20.5 -57.5v-2040q0 -37 -20.5 -57t-57.5 -20zM1323 -317h-90q-37 0 -56.5 20t-19.5 57v2040q0 37 19.5 57.5t56.5 20.5h90q37 0 57.5 -20.5t20.5 -57.5v-2040q0 -37 -20.5 -57
t-57.5 -20z" />
    <glyph glyph-name="intersection" unicode="&#x2229;" 
d="M532 -106h-94q-37 0 -56.5 20t-19.5 57v879q0 152 55.5 289.5t149.5 236t224.5 157t273.5 58.5q210 0 368 -85.5t275 -260.5q100 -152 100 -395v-879q0 -37 -20 -57t-57 -20h-95q-75 0 -75 77v854q0 179 -64 277q-76 126 -180 183.5t-252 57.5q-101 0 -213 -59
q-129 -85 -185.5 -191.5t-56.5 -267.5v-854q0 -37 -20.5 -57t-57.5 -20z" />
    <glyph glyph-name="union" unicode="&#x222a;" 
d="M1065 -98q-306 0 -485 153q-218 185 -218 602v867q0 37 19.5 57.5t56.5 20.5h94q37 0 57.5 -20.5t20.5 -57.5v-842q0 -280 108 -405t347 -125q98 0 176 19.5t129 49.5t88 76.5t56.5 90t30.5 101.5t13.5 99t2.5 94v842q0 37 19.5 57.5t55.5 20.5h95q37 0 57 -20.5
t20 -57.5v-867q0 -408 -225 -587q-195 -168 -518 -168z" />
    <glyph glyph-name="integral" unicode="&#x222b;" 
d="M827 -211q-130 0 -217.5 85t-87.5 210q0 70 46.5 120t113.5 50q60 0 103.5 -33.5t58.5 -89.5q10 -29 3.5 -67t-24.5 -72h4q54 0 91.5 99.5t37.5 264.5q0 205 -18 410q-16 224 -16 451q0 252 95 405.5t255 153.5q136 0 230.5 -90t94.5 -218q0 -69 -46.5 -115t-116.5 -46
q-68 0 -111 45.5t-43 115.5q0 58 35 99l-43 6q-39 0 -64.5 -97.5t-25.5 -258.5q0 -196 14 -406q21 -254 21 -455q0 -248 -109.5 -407.5t-280.5 -159.5zM1432 1458l2 2q7 0 11 -3v1q-1 4 -1 10q0 2 -1 5.5t-1 5.5q-7 -11 -10 -11v-10zM678 53q10 15 14 19q2 4 2 16
q0 5 -0.5 7t-3 3.5t-8.5 1.5t-6 -16q0 -21 2 -31z" />
    <glyph glyph-name="uni222E" unicode="&#x222e;" 
d="M827 -211q-130 0 -217.5 85t-87.5 210q0 70 46.5 120t113.5 50q60 0 103.5 -33.5t58.5 -89.5q10 -29 3.5 -67t-24.5 -72h4q47 0 81.5 74.5t41.5 205.5q-165 35 -263.5 162.5t-98.5 306.5q0 165 92 290.5t242 166.5v19q0 252 95 405.5t255 153.5q136 0 230.5 -90
t94.5 -218q0 -69 -46.5 -115t-116.5 -46q-68 0 -111 45.5t-43 115.5q0 58 35 99l-43 6q-39 0 -64.5 -97.5t-25.5 -258.5v-13q160 -37 261 -165t101 -298q0 -163 -92.5 -290t-241.5 -170q-17 -222 -121 -357t-262 -135zM1432 1458l2 2q7 0 11 -3v1q-1 4 -1 10q0 2 -1 5.5
t-1 5.5q-7 -11 -10 -11v-10zM1208 555q92 75 92 186q0 56 -31 109t-79 86zM950 530q-3 130 -12 236l-10 164q-44 -33 -70.5 -84t-26.5 -105q0 -68 32 -124t87 -87zM678 53q10 15 14 19q2 4 2 16q0 5 -0.5 7t-3 3.5t-8.5 1.5t-6 -16q0 -21 2 -31z" />
    <glyph glyph-name="therefore" unicode="&#x2234;" 
d="M1065 1100q-83 0 -141 58t-58 140q0 85 58 143t141 58q82 0 141.5 -59t59.5 -142q0 -81 -59.5 -139.5t-141.5 -58.5zM1065 1253q17 0 32 14t15 31q0 19 -14 33.5t-33 14.5q-20 0 -32.5 -13.5t-12.5 -34.5q0 -19 13 -32t32 -13zM473 -6q-83 0 -140 58t-57 143q0 86 56 143
t141 57q83 0 143 -59t60 -141t-60.5 -141.5t-142.5 -59.5zM1679 -6q-83 0 -139.5 58t-56.5 143q0 86 55.5 143t140.5 57q83 0 143 -59t60 -141t-60.5 -141.5t-142.5 -59.5zM473 150q19 0 34 14t15 31q0 19 -14.5 33t-34.5 14t-31.5 -12.5t-11.5 -34.5q0 -20 11.5 -32.5
t31.5 -12.5zM1679 150q19 0 34.5 14t15.5 31q0 19 -15 33t-35 14t-31.5 -12.5t-11.5 -34.5q0 -20 11.5 -32.5t31.5 -12.5z" />
    <glyph glyph-name="uni2235" unicode="&#x2235;" 
d="M473 1100q-83 0 -140 57t-57 141q0 86 56 143.5t141 57.5q83 0 143 -59.5t60 -141.5q0 -81 -60.5 -139.5t-142.5 -58.5zM1679 1100q-83 0 -139.5 56.5t-56.5 141.5q0 86 55.5 143.5t140.5 57.5q83 0 143 -59.5t60 -141.5q0 -81 -60.5 -139.5t-142.5 -58.5zM473 1253
q19 0 34 14t15 31q0 19 -14.5 33.5t-34.5 14.5t-31.5 -13t-11.5 -35q0 -20 11.5 -32.5t31.5 -12.5zM1679 1253q19 0 34.5 14t15.5 31q0 19 -15 33.5t-35 14.5t-31.5 -13t-11.5 -35q0 -20 11.5 -32.5t31.5 -12.5zM1065 -6q-83 0 -141 59.5t-58 141.5q0 85 58 142.5t141 57.5
q82 0 141.5 -58.5t59.5 -141.5q0 -82 -59.5 -141.5t-141.5 -59.5zM1065 150q17 0 32 14t15 31q0 19 -14 33t-33 14q-20 0 -32.5 -13.5t-12.5 -33.5q0 -19 13 -32t32 -13z" />
    <glyph glyph-name="similar" unicode="&#x223c;" 
d="M1497 459q-204 0 -440 168l-90 59q-192 137 -326 137q-201 0 -383 -153q-43 -38 -98 -35l-4 2q-54 3 -70 22q-13 16 -10 68q3 50 41 88q85 88 151 125q203 131 373 131q211 0 451 -160l102 -75q183 -129 303 -129q188 0 369 172q41 41 96 41t72 -17q16 -19 16 -67
q3 -51 -33 -93q-129 -148 -254 -216t-266 -68z" />
    <glyph glyph-name="similar" unicode="&#xff5e;" 
d="M1497 459q-204 0 -440 168l-90 59q-192 137 -326 137q-201 0 -383 -153q-43 -38 -98 -35l-4 2q-54 3 -70 22q-13 16 -10 68q3 50 41 88q85 88 151 125q203 131 373 131q211 0 451 -160l102 -75q183 -129 303 -129q188 0 369 172q41 41 96 41t72 -17q16 -19 16 -67
q3 -51 -33 -93q-129 -148 -254 -216t-266 -68z" />
    <glyph glyph-name="uni2252" unicode="&#x2252;" 
d="M752 1135q-92 0 -154.5 63.5t-62.5 157.5q0 98 59.5 158.5t157.5 60.5q95 0 158 -62t63 -157t-63.5 -158t-157.5 -63zM752 1288q30 0 48.5 19t18.5 49q0 31 -17.5 48t-49.5 17q-34 0 -49 -15.5t-15 -49.5q0 -30 18 -49t46 -19zM1790 858h-1460q-76 0 -76 76v94
q0 37 19.5 57.5t56.5 20.5h1460q37 0 57.5 -20.5t20.5 -57.5v-94q0 -37 -20.5 -56.5t-57.5 -19.5zM1790 489h-1460q-76 0 -76 76v94q0 37 19.5 57.5t56.5 20.5h1460q37 0 57.5 -20.5t20.5 -57.5v-94q0 -37 -20.5 -56.5t-57.5 -19.5zM1315 35q-89 0 -154 66t-65 155
q0 94 62.5 156.5t156.5 62.5q91 0 156 -63.5t65 -155.5q0 -88 -66 -154.5t-155 -66.5zM1315 188q25 0 46 21.5t21 46.5q0 29 -19.5 47.5t-47.5 18.5q-31 0 -48.5 -17.5t-17.5 -48.5q0 -26 20.5 -47t45.5 -21z" />
    <glyph glyph-name="notequal" unicode="&#x2260;" 
d="M952 104h-106q-41 0 -59 22t-9 62l70 265h-397q-76 0 -76 75v95q0 37 19.5 57t56.5 20h464l43 154h-507q-76 0 -76 76v94q0 37 19.5 57.5t56.5 20.5h573l80 284q18 66 84 66h108q41 0 59 -24t7 -64l-74 -262h412q37 0 57.5 -20.5t20.5 -57.5v-94q0 -37 -20.5 -56.5
t-57.5 -19.5h-479l-43 -154h522q37 0 57.5 -20t20.5 -57v-95q0 -36 -20.5 -55.5t-57.5 -19.5h-588l-76 -283q-15 -66 -84 -66z" />
    <glyph glyph-name="equivalence" unicode="&#x2261;" 
d="M1776 999h-1459q-75 0 -75 76v94q0 37 19.5 57.5t55.5 20.5h1459q37 0 57 -20.5t20 -57.5v-94q0 -37 -20 -56.5t-57 -19.5zM1776 653h-1459q-75 0 -75 76v94q0 37 19.5 57.5t55.5 20.5h1459q37 0 57 -20.5t20 -57.5v-94q0 -37 -20 -56.5t-57 -19.5zM1776 305h-1459
q-75 0 -75 76v94q0 37 19.5 57.5t55.5 20.5h1459q37 0 57 -20.5t20 -57.5v-94q0 -37 -20 -56.5t-57 -19.5z" />
    <glyph glyph-name="uni2266" unicode="&#x2266;" 
d="M1763 283h-1411q-76 0 -76 75v95q0 37 19.5 57t56.5 20h1252l-1264 383q-64 18 -64 86v107q0 69 62 86l1415 457q40 12 64 -5.5t24 -58.5v-129q0 -68 -65 -86l-1008 -315l1008 -291q65 -18 65 -86v-320q0 -36 -20.5 -55.5t-57.5 -19.5zM1763 -6h-1411q-37 0 -56.5 20.5
t-19.5 57.5v94q0 37 19.5 57.5t56.5 20.5h1411q37 0 57.5 -20.5t20.5 -57.5v-94q0 -37 -20.5 -57.5t-57.5 -20.5z" />
    <glyph glyph-name="uni2267" unicode="&#x2267;" 
d="M1776 283h-1416q-75 0 -75 75v320q0 68 63 86l1008 291l-1008 315q-63 18 -63 86v129q0 41 23 58.5t63 5.5l1419 -457q63 -18 63 -86v-107q0 -68 -65 -86l-1268 -383h1256q37 0 57 -20t20 -57v-95q0 -75 -77 -75zM1776 -6h-1416q-36 0 -55.5 20.5t-19.5 57.5v94
q0 37 19.5 57.5t55.5 20.5h1416q37 0 57 -20.5t20 -57.5v-94q0 -37 -20 -57.5t-57 -20.5z" />
    <glyph glyph-name="circleplus" unicode="&#x2295;" 
d="M1065 -49q-167 0 -319.5 65.5t-262.5 176.5t-175.5 263.5t-65.5 319.5q0 168 65 321t175 263.5t262.5 176t320.5 65.5q167 0 319.5 -66t263.5 -176.5t176.5 -263.5t65.5 -320q0 -222 -112 -412t-302 -301.5t-411 -111.5zM465 889h489v487q-186 -31 -321.5 -166
t-167.5 -321zM1178 1376v-487h487q-32 185 -168 320.5t-319 166.5zM954 176v490h-489q32 -186 167 -321t322 -169zM1178 666v-490q184 34 318.5 169.5t166.5 320.5h-485z" />
    <glyph glyph-name="circleplus" unicode="&#x2641;" 
d="M1065 -49q-167 0 -319.5 65.5t-262.5 176.5t-175.5 263.5t-65.5 319.5q0 168 65 321t175 263.5t262.5 176t320.5 65.5q167 0 319.5 -66t263.5 -176.5t176.5 -263.5t65.5 -320q0 -222 -112 -412t-302 -301.5t-411 -111.5zM465 889h489v487q-186 -31 -321.5 -166
t-167.5 -321zM1178 1376v-487h487q-32 185 -168 320.5t-319 166.5zM954 176v490h-489q32 -186 167 -321t322 -169zM1178 666v-490q184 34 318.5 169.5t166.5 320.5h-485z" />
    <glyph glyph-name="uni2299" unicode="&#x2299;" 
d="M1065 -49q-167 0 -319.5 65.5t-262.5 176.5t-175.5 263.5t-65.5 319.5q0 168 65 321t175 263.5t262.5 176t320.5 65.5q167 0 319.5 -66t263.5 -176.5t176.5 -263.5t65.5 -320q0 -222 -112 -412t-302 -301.5t-411 -111.5zM1065 168q165 0 305.5 81.5t222.5 221.5t82 305
q0 167 -81 307.5t-221.5 221.5t-307.5 81q-126 0 -239 -47.5t-193.5 -129t-128 -194.5t-47.5 -239q0 -167 80.5 -307t220.5 -220.5t307 -80.5zM1065 590q-78 0 -133 54t-55 132q0 84 52.5 137.5t135.5 53.5q78 0 133 -56.5t55 -134.5q0 -76 -55.5 -131t-132.5 -55zM1065 743
q12 0 23.5 10.5t11.5 22.5q0 15 -10.5 26t-24.5 11q-35 0 -35 -37q0 -14 10 -23.5t25 -9.5z" />
    <glyph glyph-name="uni2299" unicode="&#x2609;" 
d="M1065 -49q-167 0 -319.5 65.5t-262.5 176.5t-175.5 263.5t-65.5 319.5q0 168 65 321t175 263.5t262.5 176t320.5 65.5q167 0 319.5 -66t263.5 -176.5t176.5 -263.5t65.5 -320q0 -222 -112 -412t-302 -301.5t-411 -111.5zM1065 168q165 0 305.5 81.5t222.5 221.5t82 305
q0 167 -81 307.5t-221.5 221.5t-307.5 81q-126 0 -239 -47.5t-193.5 -129t-128 -194.5t-47.5 -239q0 -167 80.5 -307t220.5 -220.5t307 -80.5zM1065 590q-78 0 -133 54t-55 132q0 84 52.5 137.5t135.5 53.5q78 0 133 -56.5t55 -134.5q0 -76 -55.5 -131t-132.5 -55zM1065 743
q12 0 23.5 10.5t11.5 22.5q0 15 -10.5 26t-24.5 11q-35 0 -35 -37q0 -14 10 -23.5t25 -9.5z" />
    <glyph glyph-name="uni22A5" unicode="&#x22a5;" 
d="M1792 72h-1499q-76 0 -76 75v95q0 37 19.5 57t56.5 20h639v1227q0 37 19.5 57.5t56.5 20.5h94q37 0 57.5 -20.5t20.5 -57.5v-1227h612q37 0 57.5 -20t20.5 -57v-95q0 -36 -20.5 -55.5t-57.5 -19.5z" />
    <glyph glyph-name="uni22BF" unicode="&#x22bf;" 
d="M1677 78h-1497q-52 0 -64 28.5t25 65.5l1518 1522q37 37 66.5 25t29.5 -64v-1501q0 -37 -20.5 -56.5t-57.5 -19.5zM1505 1165l-837 -837h837v837z" />
    <glyph glyph-name="uni2460" unicode="&#x2460;" 
d="M1057 -256q-212 0 -405 82.5t-332.5 222t-222.5 332t-83 403.5q0 214 82.5 407.5t222 333t332.5 222t406 82.5q211 0 403.5 -83t332 -223t222 -333.5t82.5 -405.5q0 -211 -83 -403.5t-222.5 -332t-332 -222t-402.5 -82.5zM1057 -57q170 0 325.5 67t268.5 180t180 268.5
t67 325.5q0 172 -66.5 328.5t-179 270t-268.5 180.5t-327 67q-173 0 -329.5 -66.5t-269 -180t-179 -270t-66.5 -329.5q0 -137 42.5 -265.5t120.5 -232t181.5 -181t232.5 -120t267 -42.5zM1335 111h-540q-76 0 -76 65v12q0 55 37 95q42 39 104 36q76 0 76 5l-1 2q-1 4 -1 6
v833q0 3 -1 9.5t-1 9.5q-41 6 -96 8q-58 3 -97 39q-37 40 -37 67q0 28 33 66q30 35 86 47q93 21 174 84q47 35 95 35h30q37 0 57.5 -20.5t20.5 -57.5v-1120q0 -10 3 -11q6 -2 122 -2q43 1 66.5 -18.5t23.5 -56.5v-58q0 -36 -20.5 -55.5t-57.5 -19.5zM1044 1294v47
q-4 -2 -34 -20q16 -8 22 -14z" />
    <glyph glyph-name="uni2460" unicode="&#xf6b1;" 
d="M1057 -256q-212 0 -405 82.5t-332.5 222t-222.5 332t-83 403.5q0 214 82.5 407.5t222 333t332.5 222t406 82.5q211 0 403.5 -83t332 -223t222 -333.5t82.5 -405.5q0 -211 -83 -403.5t-222.5 -332t-332 -222t-402.5 -82.5zM1057 -57q170 0 325.5 67t268.5 180t180 268.5
t67 325.5q0 172 -66.5 328.5t-179 270t-268.5 180.5t-327 67q-173 0 -329.5 -66.5t-269 -180t-179 -270t-66.5 -329.5q0 -137 42.5 -265.5t120.5 -232t181.5 -181t232.5 -120t267 -42.5zM1335 111h-540q-76 0 -76 65v12q0 55 37 95q42 39 104 36q76 0 76 5l-1 2q-1 4 -1 6
v833q0 3 -1 9.5t-1 9.5q-41 6 -96 8q-58 3 -97 39q-37 40 -37 67q0 28 33 66q30 35 86 47q93 21 174 84q47 35 95 35h30q37 0 57.5 -20.5t20.5 -57.5v-1120q0 -10 3 -11q6 -2 122 -2q43 1 66.5 -18.5t23.5 -56.5v-58q0 -36 -20.5 -55.5t-57.5 -19.5zM1044 1294v47
q-4 -2 -34 -20q16 -8 22 -14z" />
    <glyph glyph-name="uni2461" unicode="&#x2461;" 
d="M1057 -256q-212 0 -405 82.5t-332.5 222t-222.5 332t-83 403.5q0 214 82.5 407.5t222 333t332.5 222t406 82.5q211 0 403.5 -83t332 -223t222 -333.5t82.5 -405.5q0 -211 -83 -403.5t-222.5 -332t-332 -222t-402.5 -82.5zM1057 -57q170 0 325.5 67t268.5 180t180 268.5
t67 325.5q0 172 -66.5 328.5t-179 270t-268.5 180.5t-327 67q-173 0 -329.5 -66.5t-269 -180t-179 -270t-66.5 -329.5q0 -137 42.5 -265.5t120.5 -232t181.5 -181t232.5 -120t267 -42.5zM1313 111h-592q-78 0 -78 73q-3 243 172 418l252 254q111 111 111 272
q0 84 -43.5 135.5t-112.5 51.5q-67 0 -100 -33l-15 -25q1 -6 6.5 -37t10.5 -53q24 -70 -22.5 -131t-117.5 -61t-111 49t-40 127q0 153 115 266t274 113q189 0 312.5 -111t123.5 -280q0 -107 -61 -232q-18 -40 -54 -76l-194 -213q-167 -150 -236 -258h228q43 0 65.5 29
t46.5 121q18 72 86 72h64q39 0 57 -23t10 -63l-73 -320q-14 -65 -84 -65z" />
    <glyph glyph-name="uni2461" unicode="&#xf6b2;" 
d="M1057 -256q-212 0 -405 82.5t-332.5 222t-222.5 332t-83 403.5q0 214 82.5 407.5t222 333t332.5 222t406 82.5q211 0 403.5 -83t332 -223t222 -333.5t82.5 -405.5q0 -211 -83 -403.5t-222.5 -332t-332 -222t-402.5 -82.5zM1057 -57q170 0 325.5 67t268.5 180t180 268.5
t67 325.5q0 172 -66.5 328.5t-179 270t-268.5 180.5t-327 67q-173 0 -329.5 -66.5t-269 -180t-179 -270t-66.5 -329.5q0 -137 42.5 -265.5t120.5 -232t181.5 -181t232.5 -120t267 -42.5zM1313 111h-592q-78 0 -78 73q-3 243 172 418l252 254q111 111 111 272
q0 84 -43.5 135.5t-112.5 51.5q-67 0 -100 -33l-15 -25q1 -6 6.5 -37t10.5 -53q24 -70 -22.5 -131t-117.5 -61t-111 49t-40 127q0 153 115 266t274 113q189 0 312.5 -111t123.5 -280q0 -107 -61 -232q-18 -40 -54 -76l-194 -213q-167 -150 -236 -258h228q43 0 65.5 29
t46.5 121q18 72 86 72h64q39 0 57 -23t10 -63l-73 -320q-14 -65 -84 -65z" />
    <glyph glyph-name="uni2462" unicode="&#x2462;" 
d="M1057 -256q-212 0 -405 82.5t-332.5 222t-222.5 332t-83 403.5q0 214 82.5 407.5t222 333t332.5 222t406 82.5q211 0 403.5 -83t332 -223t222 -333.5t82.5 -405.5q0 -211 -83 -403.5t-222.5 -332t-332 -222t-402.5 -82.5zM1057 -57q170 0 325.5 67t268.5 180t180 268.5
t67 325.5q0 172 -66.5 328.5t-179 270t-268.5 180.5t-327 67q-173 0 -329.5 -66.5t-269 -180t-179 -270t-66.5 -329.5q0 -137 42.5 -265.5t120.5 -232t181.5 -181t232.5 -120t267 -42.5zM1024 88q-165 0 -287.5 96t-122.5 226q0 64 45.5 108.5t108.5 44.5q37 0 62 -14.5
t49 -46.5q30 -40 24 -99l-8 -71q2 -5 18 -12t46.5 -13t64.5 -6q18 0 36 2.5t46.5 16t49.5 36t36.5 68t15.5 106.5q0 102 -52 153.5t-165 57.5q-64 3 -96 17q-64 28 -64 94q0 104 121 104q111 0 162 50.5t51 160.5q0 70 -33 109t-92 39q-34 0 -64 -6.5t-45.5 -15t-15.5 -15.5
v-27q25 -68 -15.5 -127t-108.5 -59q-64 0 -103 38t-39 101q0 132 117 229t274 97q169 0 280.5 -103t111.5 -260q0 -85 -32 -162t-89 -135q164 -114 164 -340q0 -188 -129.5 -315t-321.5 -127z" />
    <glyph glyph-name="uni2462" unicode="&#xf6b3;" 
d="M1057 -256q-212 0 -405 82.5t-332.5 222t-222.5 332t-83 403.5q0 214 82.5 407.5t222 333t332.5 222t406 82.5q211 0 403.5 -83t332 -223t222 -333.5t82.5 -405.5q0 -211 -83 -403.5t-222.5 -332t-332 -222t-402.5 -82.5zM1057 -57q170 0 325.5 67t268.5 180t180 268.5
t67 325.5q0 172 -66.5 328.5t-179 270t-268.5 180.5t-327 67q-173 0 -329.5 -66.5t-269 -180t-179 -270t-66.5 -329.5q0 -137 42.5 -265.5t120.5 -232t181.5 -181t232.5 -120t267 -42.5zM1024 88q-165 0 -287.5 96t-122.5 226q0 64 45.5 108.5t108.5 44.5q37 0 62 -14.5
t49 -46.5q30 -40 24 -99l-8 -71q2 -5 18 -12t46.5 -13t64.5 -6q18 0 36 2.5t46.5 16t49.5 36t36.5 68t15.5 106.5q0 102 -52 153.5t-165 57.5q-64 3 -96 17q-64 28 -64 94q0 104 121 104q111 0 162 50.5t51 160.5q0 70 -33 109t-92 39q-34 0 -64 -6.5t-45.5 -15t-15.5 -15.5
v-27q25 -68 -15.5 -127t-108.5 -59q-64 0 -103 38t-39 101q0 132 117 229t274 97q169 0 280.5 -103t111.5 -260q0 -85 -32 -162t-89 -135q164 -114 164 -340q0 -188 -129.5 -315t-321.5 -127z" />
    <glyph glyph-name="uni2463" unicode="&#x2463;" 
d="M1057 -256q-212 0 -405 82.5t-332.5 222t-222.5 332t-83 403.5q0 214 82.5 407.5t222 333t332.5 222t406 82.5q211 0 403.5 -83t332 -223t222 -333.5t82.5 -405.5q0 -211 -83 -403.5t-222.5 -332t-332 -222t-402.5 -82.5zM1057 -57q170 0 325.5 67t268.5 180t180 268.5
t67 325.5q0 172 -66.5 328.5t-179 270t-268.5 180.5t-327 67q-173 0 -329.5 -66.5t-269 -180t-179 -270t-66.5 -329.5q0 -137 42.5 -265.5t120.5 -232t181.5 -181t232.5 -120t267 -42.5zM1393 92h-447q-76 0 -76 70v16q0 54 37 94q14 13 30 21.5t27 11.5t37 10q29 8 29 35
v51h-373q-75 0 -75 76v35q0 53 24 94l488 875q34 55 92 55h51q37 0 57.5 -20.5t20.5 -57.5v-837h106q37 0 57.5 -20.5t20.5 -57.5v-66q0 -37 -20.5 -56.5t-57.5 -19.5h-106v-51q0 -27 10.5 -33t58.5 -6q86 -3 86 -78v-65q0 -37 -20 -56.5t-57 -19.5zM1135 1237l26 -6v53z
M1030 932l-176 -311h176v311zM1155 246h29q-12 23 -13 30l-7.5 -15t-8.5 -15z" />
    <glyph glyph-name="uni2463" unicode="&#xf6b4;" 
d="M1057 -256q-212 0 -405 82.5t-332.5 222t-222.5 332t-83 403.5q0 214 82.5 407.5t222 333t332.5 222t406 82.5q211 0 403.5 -83t332 -223t222 -333.5t82.5 -405.5q0 -211 -83 -403.5t-222.5 -332t-332 -222t-402.5 -82.5zM1057 -57q170 0 325.5 67t268.5 180t180 268.5
t67 325.5q0 172 -66.5 328.5t-179 270t-268.5 180.5t-327 67q-173 0 -329.5 -66.5t-269 -180t-179 -270t-66.5 -329.5q0 -137 42.5 -265.5t120.5 -232t181.5 -181t232.5 -120t267 -42.5zM1393 92h-447q-76 0 -76 70v16q0 54 37 94q14 13 30 21.5t27 11.5t37 10q29 8 29 35
v51h-373q-75 0 -75 76v35q0 53 24 94l488 875q34 55 92 55h51q37 0 57.5 -20.5t20.5 -57.5v-837h106q37 0 57.5 -20.5t20.5 -57.5v-66q0 -37 -20.5 -56.5t-57.5 -19.5h-106v-51q0 -27 10.5 -33t58.5 -6q86 -3 86 -78v-65q0 -37 -20 -56.5t-57 -19.5zM1135 1237l26 -6v53z
M1030 932l-176 -311h176v311zM1155 246h29q-12 23 -13 30l-7.5 -15t-8.5 -15z" />
    <glyph glyph-name="uni2464" unicode="&#x2464;" 
d="M1057 -256q-212 0 -405 82.5t-332.5 222t-222.5 332t-83 403.5q0 214 82.5 407.5t222 333t332.5 222t406 82.5q211 0 403.5 -83t332 -223t222 -333.5t82.5 -405.5q0 -211 -83 -403.5t-222.5 -332t-332 -222t-402.5 -82.5zM1057 -57q170 0 325.5 67t268.5 180t180 268.5
t67 325.5q0 236 -120 434.5t-320 307.5l-72 -187q-23 -59 -88 -59h-397v-260q61 22 131 22q211 0 333 -126t122 -343q0 -218 -125.5 -351.5t-329.5 -133.5q-156 0 -270.5 99t-114.5 233q0 65 42 106t108 41q53 0 94.5 -40t38.5 -91l-10 -104q1 -1 3 -2.5t5.5 -5l7.5 -7.5
q22 -16 96 -16q94 0 142.5 69t48.5 203q0 121 -51.5 188.5t-139.5 67.5q-65 0 -108 -43q-9 -9 -21.5 -23.5t-22.5 -24t-22 -17.5q-36 -23 -86 -23h-4q-76 0 -76 76v678q0 37 19.5 57.5t56.5 20.5h686q-189 100 -397 100q-173 0 -329.5 -66.5t-269 -180t-179 -270
t-66.5 -329.5q0 -137 42.5 -265.5t120.5 -232t181.5 -181t232.5 -120t267 -42.5z" />
    <glyph glyph-name="uni2464" unicode="&#xf6b5;" 
d="M1057 -256q-212 0 -405 82.5t-332.5 222t-222.5 332t-83 403.5q0 214 82.5 407.5t222 333t332.5 222t406 82.5q211 0 403.5 -83t332 -223t222 -333.5t82.5 -405.5q0 -211 -83 -403.5t-222.5 -332t-332 -222t-402.5 -82.5zM1057 -57q170 0 325.5 67t268.5 180t180 268.5
t67 325.5q0 236 -120 434.5t-320 307.5l-72 -187q-23 -59 -88 -59h-397v-260q61 22 131 22q211 0 333 -126t122 -343q0 -218 -125.5 -351.5t-329.5 -133.5q-156 0 -270.5 99t-114.5 233q0 65 42 106t108 41q53 0 94.5 -40t38.5 -91l-10 -104q1 -1 3 -2.5t5.5 -5l7.5 -7.5
q22 -16 96 -16q94 0 142.5 69t48.5 203q0 121 -51.5 188.5t-139.5 67.5q-65 0 -108 -43q-9 -9 -21.5 -23.5t-22.5 -24t-22 -17.5q-36 -23 -86 -23h-4q-76 0 -76 76v678q0 37 19.5 57.5t56.5 20.5h686q-189 100 -397 100q-173 0 -329.5 -66.5t-269 -180t-179 -270
t-66.5 -329.5q0 -137 42.5 -265.5t120.5 -232t181.5 -181t232.5 -120t267 -42.5z" />
    <glyph glyph-name="uni2465" unicode="&#x2465;" 
d="M1057 -256q-212 0 -405 82.5t-332.5 222t-222.5 332t-83 403.5q0 214 82.5 407.5t222 333t332.5 222t406 82.5q211 0 403.5 -83t332 -223t222 -333.5t82.5 -405.5q0 -211 -83 -403.5t-222.5 -332t-332 -222t-402.5 -82.5zM1057 -57q170 0 325.5 67t268.5 180t180 268.5
t67 325.5q0 172 -66.5 328.5t-179 270t-268.5 180.5t-327 67q-173 0 -329.5 -66.5t-269 -180t-179 -270t-66.5 -329.5q0 -137 42.5 -265.5t120.5 -232t181.5 -181t232.5 -120t267 -42.5zM1061 88q-206 0 -324.5 179t-118.5 487q0 229 59 405t169 273.5t256 97.5
q129 0 219 -64.5t90 -165.5q0 -64 -43 -106.5t-106 -42.5q-66 0 -108 41t-42 108q-21 15 -39 15q-63 0 -110.5 -87.5t-67.5 -242.5q89 47 203 47q161 0 271 -128t110 -314q0 -100 -34 -193t-90.5 -160.5t-133.5 -108t-160 -40.5zM1061 301q54 0 102.5 89.5t48.5 199.5
q0 95 -45 162t-106 67q-42 0 -94 -37.5t-82 -91.5q4 -178 53 -283.5t123 -105.5z" />
    <glyph glyph-name="uni2465" unicode="&#xf6b6;" 
d="M1057 -256q-212 0 -405 82.5t-332.5 222t-222.5 332t-83 403.5q0 214 82.5 407.5t222 333t332.5 222t406 82.5q211 0 403.5 -83t332 -223t222 -333.5t82.5 -405.5q0 -211 -83 -403.5t-222.5 -332t-332 -222t-402.5 -82.5zM1057 -57q170 0 325.5 67t268.5 180t180 268.5
t67 325.5q0 172 -66.5 328.5t-179 270t-268.5 180.5t-327 67q-173 0 -329.5 -66.5t-269 -180t-179 -270t-66.5 -329.5q0 -137 42.5 -265.5t120.5 -232t181.5 -181t232.5 -120t267 -42.5zM1061 88q-206 0 -324.5 179t-118.5 487q0 229 59 405t169 273.5t256 97.5
q129 0 219 -64.5t90 -165.5q0 -64 -43 -106.5t-106 -42.5q-66 0 -108 41t-42 108q-21 15 -39 15q-63 0 -110.5 -87.5t-67.5 -242.5q89 47 203 47q161 0 271 -128t110 -314q0 -100 -34 -193t-90.5 -160.5t-133.5 -108t-160 -40.5zM1061 301q54 0 102.5 89.5t48.5 199.5
q0 95 -45 162t-106 67q-42 0 -94 -37.5t-82 -91.5q4 -178 53 -283.5t123 -105.5z" />
    <glyph glyph-name="uni2466" unicode="&#x2466;" 
d="M1057 -256q-212 0 -405 82.5t-332.5 222t-222.5 332t-83 403.5q0 214 82.5 407.5t222 333t332.5 222t406 82.5q211 0 403.5 -83t332 -223t222 -333.5t82.5 -405.5q0 -211 -83 -403.5t-222.5 -332t-332 -222t-402.5 -82.5zM1057 -57q170 0 325.5 67t268.5 180t180 268.5
t67 325.5q0 232 -117 429.5t-311 306.5q12 -57 21 -88q1 -5 1.5 -12.5t1.5 -26t-1 -21.5q-1 -9 -27 -59q-83 -154 -132 -256.5t-98 -236t-71 -269t-22 -289.5q0 -78 -34 -126t-99 -48q-68 0 -99.5 52.5t-31.5 138.5q0 73 18 190q53 329 320 819h-236q-47 0 -71 -39t-56 -172
q-17 -71 -86 -71h-55q-40 0 -58.5 21.5t-11.5 59.5l74 373q12 70 82 70h655q-189 100 -397 100q-173 0 -329.5 -66.5t-269 -180t-179 -270t-66.5 -329.5q0 -137 42.5 -265.5t120.5 -232t181.5 -181t232.5 -120t267 -42.5z" />
    <glyph glyph-name="uni2466" unicode="&#xf6b7;" 
d="M1057 -256q-212 0 -405 82.5t-332.5 222t-222.5 332t-83 403.5q0 214 82.5 407.5t222 333t332.5 222t406 82.5q211 0 403.5 -83t332 -223t222 -333.5t82.5 -405.5q0 -211 -83 -403.5t-222.5 -332t-332 -222t-402.5 -82.5zM1057 -57q170 0 325.5 67t268.5 180t180 268.5
t67 325.5q0 232 -117 429.5t-311 306.5q12 -57 21 -88q1 -5 1.5 -12.5t1.5 -26t-1 -21.5q-1 -9 -27 -59q-83 -154 -132 -256.5t-98 -236t-71 -269t-22 -289.5q0 -78 -34 -126t-99 -48q-68 0 -99.5 52.5t-31.5 138.5q0 73 18 190q53 329 320 819h-236q-47 0 -71 -39t-56 -172
q-17 -71 -86 -71h-55q-40 0 -58.5 21.5t-11.5 59.5l74 373q12 70 82 70h655q-189 100 -397 100q-173 0 -329.5 -66.5t-269 -180t-179 -270t-66.5 -329.5q0 -137 42.5 -265.5t120.5 -232t181.5 -181t232.5 -120t267 -42.5z" />
    <glyph glyph-name="uni2467" unicode="&#x2467;" 
d="M1057 -256q-212 0 -405 82.5t-332.5 222t-222.5 332t-83 403.5q0 214 82.5 407.5t222 333t332.5 222t406 82.5q211 0 403.5 -83t332 -223t222 -333.5t82.5 -405.5q0 -211 -83 -403.5t-222.5 -332t-332 -222t-402.5 -82.5zM1057 -57q170 0 325.5 67t268.5 180t180 268.5
t67 325.5q0 172 -66.5 328.5t-179 270t-268.5 180.5t-327 67q-173 0 -329.5 -66.5t-269 -180t-179 -270t-66.5 -329.5q0 -137 42.5 -265.5t120.5 -232t181.5 -181t232.5 -120t267 -42.5zM1047 88q-183 0 -312 110t-129 265q0 194 185 344q-76 67 -110 150.5t-34 201.5
q0 156 110 263.5t271 107.5q167 0 277 -106t110 -265q0 -163 -147 -295q194 -156 194 -401q0 -150 -125 -262.5t-290 -112.5zM1067 985q49 38 66.5 74.5t17.5 99.5q0 65 -37.5 112.5t-85.5 47.5q-139 0 -139 -160q0 -44 22 -69q45 -48 156 -105zM1047 297q65 0 118.5 51
t53.5 115q0 60 -50 109.5t-178 111.5q-119 -96 -119 -221q0 -74 48.5 -120t126.5 -46z" />
    <glyph glyph-name="uni2467" unicode="&#xf6b8;" 
d="M1057 -256q-212 0 -405 82.5t-332.5 222t-222.5 332t-83 403.5q0 214 82.5 407.5t222 333t332.5 222t406 82.5q211 0 403.5 -83t332 -223t222 -333.5t82.5 -405.5q0 -211 -83 -403.5t-222.5 -332t-332 -222t-402.5 -82.5zM1057 -57q170 0 325.5 67t268.5 180t180 268.5
t67 325.5q0 172 -66.5 328.5t-179 270t-268.5 180.5t-327 67q-173 0 -329.5 -66.5t-269 -180t-179 -270t-66.5 -329.5q0 -137 42.5 -265.5t120.5 -232t181.5 -181t232.5 -120t267 -42.5zM1047 88q-183 0 -312 110t-129 265q0 194 185 344q-76 67 -110 150.5t-34 201.5
q0 156 110 263.5t271 107.5q167 0 277 -106t110 -265q0 -163 -147 -295q194 -156 194 -401q0 -150 -125 -262.5t-290 -112.5zM1067 985q49 38 66.5 74.5t17.5 99.5q0 65 -37.5 112.5t-85.5 47.5q-139 0 -139 -160q0 -44 22 -69q45 -48 156 -105zM1047 297q65 0 118.5 51
t53.5 115q0 60 -50 109.5t-178 111.5q-119 -96 -119 -221q0 -74 48.5 -120t126.5 -46z" />
    <glyph glyph-name="uni2468" unicode="&#x2468;" 
d="M1057 -256q-212 0 -405 82.5t-332.5 222t-222.5 332t-83 403.5q0 214 82.5 407.5t222 333t332.5 222t406 82.5q211 0 403.5 -83t332 -223t222 -333.5t82.5 -405.5q0 -211 -83 -403.5t-222.5 -332t-332 -222t-402.5 -82.5zM1057 -57q170 0 325.5 67t268.5 180t180 268.5
t67 325.5q0 172 -66.5 328.5t-179 270t-268.5 180.5t-327 67q-173 0 -329.5 -66.5t-269 -180t-179 -270t-66.5 -329.5q0 -137 42.5 -265.5t120.5 -232t181.5 -181t232.5 -120t267 -42.5zM993 88q-134 0 -220.5 58t-86.5 153q0 66 43 112t107 46q69 0 109 -43t40 -115
q12 -2 37 -2q50 0 94 90.5t66 237.5q-98 -58 -205 -58q-170 0 -272.5 135.5t-102.5 358.5q0 124 55 232t149.5 172.5t203.5 64.5q217 0 335.5 -184.5t118.5 -518.5q0 -439 -213 -628q-111 -111 -258 -111zM1014 776q70 0 180 137q-10 192 -59 299t-125 107q-58 0 -100 -74.5
t-42 -183.5q0 -119 44 -202t102 -83z" />
    <glyph glyph-name="uni2468" unicode="&#xf6b9;" 
d="M1057 -256q-212 0 -405 82.5t-332.5 222t-222.5 332t-83 403.5q0 214 82.5 407.5t222 333t332.5 222t406 82.5q211 0 403.5 -83t332 -223t222 -333.5t82.5 -405.5q0 -211 -83 -403.5t-222.5 -332t-332 -222t-402.5 -82.5zM1057 -57q170 0 325.5 67t268.5 180t180 268.5
t67 325.5q0 172 -66.5 328.5t-179 270t-268.5 180.5t-327 67q-173 0 -329.5 -66.5t-269 -180t-179 -270t-66.5 -329.5q0 -137 42.5 -265.5t120.5 -232t181.5 -181t232.5 -120t267 -42.5zM993 88q-134 0 -220.5 58t-86.5 153q0 66 43 112t107 46q69 0 109 -43t40 -115
q12 -2 37 -2q50 0 94 90.5t66 237.5q-98 -58 -205 -58q-170 0 -272.5 135.5t-102.5 358.5q0 124 55 232t149.5 172.5t203.5 64.5q217 0 335.5 -184.5t118.5 -518.5q0 -439 -213 -628q-111 -111 -258 -111zM1014 776q70 0 180 137q-10 192 -59 299t-125 107q-58 0 -100 -74.5
t-42 -183.5q0 -119 44 -202t102 -83z" />
    <glyph glyph-name="uni2469" unicode="&#x2469;" 
d="M1057 1829q211 0 403.5 -83t332 -223t222 -333.5t82.5 -405.5q0 -211 -83 -403.5t-222.5 -332t-332 -222t-402.5 -82.5q-212 0 -405 82.5t-332.5 222t-222.5 332t-83 403.5q0 214 82.5 407.5t222 333t332.5 222t406 82.5zM1057 -57q170 0 325.5 67t268.5 180t180 268.5
t67 325.5q0 172 -66.5 328.5t-179 270t-268.5 180.5t-327 67q-173 0 -329.5 -66.5t-269 -180t-179 -270t-66.5 -329.5q0 -172 66.5 -327t185.5 -271v2q0 55 37 95q42 39 102 36h8q20 0 20 1t-1 2q-4 5 -4 10v833q0 7 1 16q2 11 -2.5 12.5t-30.5 0.5h-3q-60 -3 -103 37
q-36 39 -36 67q0 29 30 64q25 32 84 51q63 24 115 74q43 43 96 43h33q37 0 57.5 -20.5t20.5 -57.5v-1120q0 -4 -1 -10q0 -7 5 -7q2 0 9 1q29 3 61 3q90 3 90 -77v-56q0 -36 -20.5 -55.5t-57.5 -19.5h-422q228 -168 504 -168zM1380 1530q105 0 183.5 -93t119.5 -256t41 -374
q0 -205 -42.5 -368.5t-121 -257t-180.5 -93.5q-161 0 -252.5 194t-91.5 525q0 212 41 375t119.5 255.5t183.5 92.5zM715 1317l20 -12v26q-12 -6 -20 -14zM1376 299q82 114 82 508q0 374 -67 489q-11 16 -11 21q-10 -10 -20 -25q-57 -105 -57 -485q0 -153 11.5 -272.5
t28.5 -178t35 -59.5q-2 0 -2 2z" />
    <glyph glyph-name="uni2469" unicode="&#xf6ba;" 
d="M1057 1829q211 0 403.5 -83t332 -223t222 -333.5t82.5 -405.5q0 -211 -83 -403.5t-222.5 -332t-332 -222t-402.5 -82.5q-212 0 -405 82.5t-332.5 222t-222.5 332t-83 403.5q0 214 82.5 407.5t222 333t332.5 222t406 82.5zM1057 -57q170 0 325.5 67t268.5 180t180 268.5
t67 325.5q0 172 -66.5 328.5t-179 270t-268.5 180.5t-327 67q-173 0 -329.5 -66.5t-269 -180t-179 -270t-66.5 -329.5q0 -172 66.5 -327t185.5 -271v2q0 55 37 95q42 39 102 36h8q20 0 20 1t-1 2q-4 5 -4 10v833q0 7 1 16q2 11 -2.5 12.5t-30.5 0.5h-3q-60 -3 -103 37
q-36 39 -36 67q0 29 30 64q25 32 84 51q63 24 115 74q43 43 96 43h33q37 0 57.5 -20.5t20.5 -57.5v-1120q0 -4 -1 -10q0 -7 5 -7q2 0 9 1q29 3 61 3q90 3 90 -77v-56q0 -36 -20.5 -55.5t-57.5 -19.5h-422q228 -168 504 -168zM1380 1530q105 0 183.5 -93t119.5 -256t41 -374
q0 -205 -42.5 -368.5t-121 -257t-180.5 -93.5q-161 0 -252.5 194t-91.5 525q0 212 41 375t119.5 255.5t183.5 92.5zM715 1317l20 -12v26q-12 -6 -20 -14zM1376 299q82 114 82 508q0 374 -67 489q-11 16 -11 21q-10 -10 -20 -25q-57 -105 -57 -485q0 -153 11.5 -272.5
t28.5 -178t35 -59.5q-2 0 -2 2z" />
    <glyph glyph-name="uni2474" unicode="&#x2474;" 
d="M373 -221q-59 13 -84 57q-122 197 -196.5 459t-74.5 493q0 81 8.5 155t34.5 182.5t83.5 249t144.5 306.5q25 51 80 66q53 14 71 4q16 -8 31 -59q14 -53 -10 -101q-130 -259 -173.5 -424.5t-43.5 -433.5q0 -451 207 -786q31 -47 20 -101q-8 -49 -27 -65q-16 -11 -71 -2z
M1696 -217h-2q-55 -8 -70 4q-12 12 -20 61q-6 48 20 95q141 239 202.5 436.5t61.5 408.5q0 419 -256 797q-30 43 -24 98q9 53 22 64q14 10 68 2q55 -6 86 -51q154 -219 238.5 -470.5t84.5 -494.5q0 -95 -18 -209v-2q-58 -303 -303 -684q-32 -49 -90 -55zM1391 -47h-652
q-75 0 -75 67v13q0 55 36 94q39 36 103 39q51 0 76.5 1t38.5 5.5t14.5 9t1.5 17.5v6v1001q0 40 -9 50t-44 10h-160q-76 0 -76 65v12q0 55 33 93q30 35 84 47q121 25 233 108q47 35 97 35h28q37 0 57.5 -20.5t20.5 -57.5v-1343q0 -15 2 -20.5t20 -11t53 -6.5t107 -1
q88 -3 88 -78v-57q0 -37 -20 -57.5t-57 -20.5zM1044 1354v84q-50 -31 -65 -37q34 -13 65 -47z" />
    <glyph glyph-name="uni2474" unicode="&#xf6bb;" 
d="M373 -221q-59 13 -84 57q-122 197 -196.5 459t-74.5 493q0 81 8.5 155t34.5 182.5t83.5 249t144.5 306.5q25 51 80 66q53 14 71 4q16 -8 31 -59q14 -53 -10 -101q-130 -259 -173.5 -424.5t-43.5 -433.5q0 -451 207 -786q31 -47 20 -101q-8 -49 -27 -65q-16 -11 -71 -2z
M1696 -217h-2q-55 -8 -70 4q-12 12 -20 61q-6 48 20 95q141 239 202.5 436.5t61.5 408.5q0 419 -256 797q-30 43 -24 98q9 53 22 64q14 10 68 2q55 -6 86 -51q154 -219 238.5 -470.5t84.5 -494.5q0 -95 -18 -209v-2q-58 -303 -303 -684q-32 -49 -90 -55zM1391 -47h-652
q-75 0 -75 67v13q0 55 36 94q39 36 103 39q51 0 76.5 1t38.5 5.5t14.5 9t1.5 17.5v6v1001q0 40 -9 50t-44 10h-160q-76 0 -76 65v12q0 55 33 93q30 35 84 47q121 25 233 108q47 35 97 35h28q37 0 57.5 -20.5t20.5 -57.5v-1343q0 -15 2 -20.5t20 -11t53 -6.5t107 -1
q88 -3 88 -78v-57q0 -37 -20 -57.5t-57 -20.5zM1044 1354v84q-50 -31 -65 -37q34 -13 65 -47z" />
    <glyph glyph-name="uni2475" unicode="&#x2475;" 
d="M373 -221q-59 13 -84 57q-122 197 -196.5 459t-74.5 493q0 81 8.5 155t34.5 182.5t83.5 249t144.5 306.5q25 51 80 66q53 14 71 4q16 -8 31 -59q14 -53 -10 -101q-130 -259 -173.5 -424.5t-43.5 -433.5q0 -451 207 -786q31 -47 20 -101q-8 -49 -27 -65q-16 -11 -71 -2z
M1696 -217h-2q-55 -8 -70 4q-12 12 -20 61q-6 48 20 95q141 239 202.5 436.5t61.5 408.5q0 419 -256 797q-30 43 -24 98q9 53 22 64q14 10 68 2q55 -6 86 -51q154 -219 238.5 -470.5t84.5 -494.5q0 -95 -18 -209v-2q-58 -303 -303 -684q-32 -49 -90 -55zM1358 -47h-713
q-37 0 -57.5 19.5t-20.5 56.5q-3 279 211 493l316 305q141 138 141 336q0 110 -63.5 179t-163.5 69q-97 0 -148 -63l-29 -43q0 -13 15 -101q27 -71 -19.5 -132.5t-117.5 -61.5q-72 0 -112 50t-40 132q0 175 133.5 304.5t317.5 129.5q224 0 362.5 -128.5t138.5 -334.5
q0 -236 -194 -436l-369 -362q-74 -71 -117 -156h322q65 0 98 41t66 168q18 71 86 71h61q40 0 58 -23t10 -63l-88 -383q-15 -67 -84 -67zM709 1163q4 0 0 2v-2z" />
    <glyph glyph-name="uni2475" unicode="&#xf6bc;" 
d="M373 -221q-59 13 -84 57q-122 197 -196.5 459t-74.5 493q0 81 8.5 155t34.5 182.5t83.5 249t144.5 306.5q25 51 80 66q53 14 71 4q16 -8 31 -59q14 -53 -10 -101q-130 -259 -173.5 -424.5t-43.5 -433.5q0 -451 207 -786q31 -47 20 -101q-8 -49 -27 -65q-16 -11 -71 -2z
M1696 -217h-2q-55 -8 -70 4q-12 12 -20 61q-6 48 20 95q141 239 202.5 436.5t61.5 408.5q0 419 -256 797q-30 43 -24 98q9 53 22 64q14 10 68 2q55 -6 86 -51q154 -219 238.5 -470.5t84.5 -494.5q0 -95 -18 -209v-2q-58 -303 -303 -684q-32 -49 -90 -55zM1358 -47h-713
q-37 0 -57.5 19.5t-20.5 56.5q-3 279 211 493l316 305q141 138 141 336q0 110 -63.5 179t-163.5 69q-97 0 -148 -63l-29 -43q0 -13 15 -101q27 -71 -19.5 -132.5t-117.5 -61.5q-72 0 -112 50t-40 132q0 175 133.5 304.5t317.5 129.5q224 0 362.5 -128.5t138.5 -334.5
q0 -236 -194 -436l-369 -362q-74 -71 -117 -156h322q65 0 98 41t66 168q18 71 86 71h61q40 0 58 -23t10 -63l-88 -383q-15 -67 -84 -67zM709 1163q4 0 0 2v-2z" />
    <glyph glyph-name="uni2476" unicode="&#x2476;" 
d="M373 -221q-59 13 -84 57q-122 197 -196.5 459t-74.5 493q0 81 8.5 155t34.5 182.5t83.5 249t144.5 306.5q25 51 80 66q53 14 71 4q16 -8 31 -59q14 -53 -10 -101q-130 -259 -173.5 -424.5t-43.5 -433.5q0 -451 207 -786q31 -47 20 -101q-8 -49 -27 -65q-16 -11 -71 -2z
M1696 -217h-2q-55 -8 -70 4q-12 12 -20 61q-6 48 20 95q141 239 202.5 436.5t61.5 408.5q0 419 -256 797q-30 43 -24 98q9 53 22 64q14 10 68 2q55 -6 86 -51q154 -219 238.5 -470.5t84.5 -494.5q0 -95 -18 -209v-2q-58 -303 -303 -684q-32 -49 -90 -55zM1012 -72
q-127 0 -237 51t-175 136.5t-65 183.5q0 64 45 109t108 45q35 0 59 -13.5t50 -44.5q32 -40 26 -98l-8 -78q0 -17 33 -43q39 -31 164 -31q120 0 189 79t69 218q0 138 -74.5 206.5t-234.5 74.5q-66 4 -95 16q-63 28 -63 95q0 106 121 106q164 0 221 66q74 77 74 202
q0 93 -51 148t-136 55q-76 0 -133 -24t-57 -52q0 -16 2 -26q26 -72 -14.5 -132.5t-110.5 -60.5q-65 0 -103 37.5t-38 101.5q0 150 135.5 260.5t318.5 110.5q200 0 326.5 -117t126.5 -301q0 -103 -43 -196t-119 -160q213 -125 213 -410q0 -221 -149 -367.5t-375 -146.5z" />
    <glyph glyph-name="uni2476" unicode="&#xf6bd;" 
d="M373 -221q-59 13 -84 57q-122 197 -196.5 459t-74.5 493q0 81 8.5 155t34.5 182.5t83.5 249t144.5 306.5q25 51 80 66q53 14 71 4q16 -8 31 -59q14 -53 -10 -101q-130 -259 -173.5 -424.5t-43.5 -433.5q0 -451 207 -786q31 -47 20 -101q-8 -49 -27 -65q-16 -11 -71 -2z
M1696 -217h-2q-55 -8 -70 4q-12 12 -20 61q-6 48 20 95q141 239 202.5 436.5t61.5 408.5q0 419 -256 797q-30 43 -24 98q9 53 22 64q14 10 68 2q55 -6 86 -51q154 -219 238.5 -470.5t84.5 -494.5q0 -95 -18 -209v-2q-58 -303 -303 -684q-32 -49 -90 -55zM1012 -72
q-127 0 -237 51t-175 136.5t-65 183.5q0 64 45 109t108 45q35 0 59 -13.5t50 -44.5q32 -40 26 -98l-8 -78q0 -17 33 -43q39 -31 164 -31q120 0 189 79t69 218q0 138 -74.5 206.5t-234.5 74.5q-66 4 -95 16q-63 28 -63 95q0 106 121 106q164 0 221 66q74 77 74 202
q0 93 -51 148t-136 55q-76 0 -133 -24t-57 -52q0 -16 2 -26q26 -72 -14.5 -132.5t-110.5 -60.5q-65 0 -103 37.5t-38 101.5q0 150 135.5 260.5t318.5 110.5q200 0 326.5 -117t126.5 -301q0 -103 -43 -196t-119 -160q213 -125 213 -410q0 -221 -149 -367.5t-375 -146.5z" />
    <glyph glyph-name="uni2477" unicode="&#x2477;" 
d="M373 -221q-59 13 -84 57q-122 197 -196.5 459t-74.5 493q0 81 8.5 155t34.5 182.5t83.5 249t144.5 306.5q25 51 80 66q53 14 71 4q16 -8 31 -59q14 -53 -10 -101q-130 -259 -173.5 -424.5t-43.5 -433.5q0 -451 207 -786q31 -47 20 -101q-8 -49 -27 -65q-16 -11 -71 -2z
M1696 -217h-2q-55 -8 -70 4q-12 12 -20 61q-6 48 20 95q141 239 202.5 436.5t61.5 408.5q0 419 -256 797q-30 43 -24 98q9 53 22 64q14 10 68 2q55 -6 86 -51q154 -219 238.5 -470.5t84.5 -494.5q0 -95 -18 -209v-2q-58 -303 -303 -684q-32 -49 -90 -55zM1466 -70h-536
q-37 0 -56.5 19.5t-19.5 54.5v16q0 55 37 95q34 32 96 41q39 6 55.5 24t16.5 51v72h-475q-76 0 -76 76v35q0 51 22 94l592 1071q30 55 92 55h50q37 0 57 -20.5t20 -57.5v-1034h158q37 0 57.5 -20.5t20.5 -57.5v-65q0 -37 -20.5 -56.5t-57.5 -19.5h-158v-72q0 -45 23 -61
t96 -16q84 -3 84 -76v-70q0 -37 -20.5 -57.5t-57.5 -20.5zM1163 1335l25 -6v49zM1059 1026l-279 -504h279v504zM1165 86h66q-21 24 -33 61q-12 -37 -33 -61z" />
    <glyph glyph-name="uni2477" unicode="&#xf6be;" 
d="M373 -221q-59 13 -84 57q-122 197 -196.5 459t-74.5 493q0 81 8.5 155t34.5 182.5t83.5 249t144.5 306.5q25 51 80 66q53 14 71 4q16 -8 31 -59q14 -53 -10 -101q-130 -259 -173.5 -424.5t-43.5 -433.5q0 -451 207 -786q31 -47 20 -101q-8 -49 -27 -65q-16 -11 -71 -2z
M1696 -217h-2q-55 -8 -70 4q-12 12 -20 61q-6 48 20 95q141 239 202.5 436.5t61.5 408.5q0 419 -256 797q-30 43 -24 98q9 53 22 64q14 10 68 2q55 -6 86 -51q154 -219 238.5 -470.5t84.5 -494.5q0 -95 -18 -209v-2q-58 -303 -303 -684q-32 -49 -90 -55zM1466 -70h-536
q-37 0 -56.5 19.5t-19.5 54.5v16q0 55 37 95q34 32 96 41q39 6 55.5 24t16.5 51v72h-475q-76 0 -76 76v35q0 51 22 94l592 1071q30 55 92 55h50q37 0 57 -20.5t20 -57.5v-1034h158q37 0 57.5 -20.5t20.5 -57.5v-65q0 -37 -20.5 -56.5t-57.5 -19.5h-158v-72q0 -45 23 -61
t96 -16q84 -3 84 -76v-70q0 -37 -20.5 -57.5t-57.5 -20.5zM1163 1335l25 -6v49zM1059 1026l-279 -504h279v504zM1165 86h66q-21 24 -33 61q-12 -37 -33 -61z" />
    <glyph glyph-name="uni2478" unicode="&#x2478;" 
d="M373 -221q-59 13 -84 57q-122 197 -196.5 459t-74.5 493q0 81 8.5 155t34.5 182.5t83.5 249t144.5 306.5q25 51 80 66q53 14 71 4q16 -8 31 -59q14 -53 -10 -101q-130 -259 -173.5 -424.5t-43.5 -433.5q0 -451 207 -786q31 -47 20 -101q-8 -49 -27 -65q-16 -11 -71 -2z
M1696 -217h-2q-55 -8 -70 4q-12 12 -20 61q-6 48 20 95q141 239 202.5 436.5t61.5 408.5q0 419 -256 797q-30 43 -24 98q9 53 22 64q14 10 68 2q55 -6 86 -51q154 -219 238.5 -470.5t84.5 -494.5q0 -95 -18 -209v-2q-58 -303 -303 -684q-32 -49 -90 -55zM1020 -72
q-120 0 -223 52t-163.5 140t-60.5 191q0 64 42.5 106t107.5 42q69 0 108 -58l3 -2q26 -47 20 -98l-8 -82q1 -32 51 -53t123 -21q116 0 188 78q78 84 78 273q0 157 -71 245t-195 88q-47 0 -91.5 -21t-72.5 -56l-15 -20t-14 -19t-13 -15t-17 -14q-38 -25 -90 -25h-2
q-76 0 -76 76v813q0 37 19.5 57.5t56.5 20.5h718q45 0 61 -26t-5 -66l-52 -104q-29 -56 -90 -56h-499v-368q81 38 182 38q246 0 389 -147.5t143 -400.5q0 -249 -150 -408.5t-382 -159.5z" />
    <glyph glyph-name="uni2478" unicode="&#xf6bf;" 
d="M373 -221q-59 13 -84 57q-122 197 -196.5 459t-74.5 493q0 81 8.5 155t34.5 182.5t83.5 249t144.5 306.5q25 51 80 66q53 14 71 4q16 -8 31 -59q14 -53 -10 -101q-130 -259 -173.5 -424.5t-43.5 -433.5q0 -451 207 -786q31 -47 20 -101q-8 -49 -27 -65q-16 -11 -71 -2z
M1696 -217h-2q-55 -8 -70 4q-12 12 -20 61q-6 48 20 95q141 239 202.5 436.5t61.5 408.5q0 419 -256 797q-30 43 -24 98q9 53 22 64q14 10 68 2q55 -6 86 -51q154 -219 238.5 -470.5t84.5 -494.5q0 -95 -18 -209v-2q-58 -303 -303 -684q-32 -49 -90 -55zM1020 -72
q-120 0 -223 52t-163.5 140t-60.5 191q0 64 42.5 106t107.5 42q69 0 108 -58l3 -2q26 -47 20 -98l-8 -82q1 -32 51 -53t123 -21q116 0 188 78q78 84 78 273q0 157 -71 245t-195 88q-47 0 -91.5 -21t-72.5 -56l-15 -20t-14 -19t-13 -15t-17 -14q-38 -25 -90 -25h-2
q-76 0 -76 76v813q0 37 19.5 57.5t56.5 20.5h718q45 0 61 -26t-5 -66l-52 -104q-29 -56 -90 -56h-499v-368q81 38 182 38q246 0 389 -147.5t143 -400.5q0 -249 -150 -408.5t-382 -159.5z" />
    <glyph glyph-name="uni2479" unicode="&#x2479;" 
d="M373 -221q-59 13 -84 57q-122 197 -196.5 459t-74.5 493q0 81 8.5 155t34.5 182.5t83.5 249t144.5 306.5q25 51 80 66q53 14 71 4q16 -8 31 -59q14 -53 -10 -101q-130 -259 -173.5 -424.5t-43.5 -433.5q0 -451 207 -786q31 -47 20 -101q-8 -49 -27 -65q-16 -11 -71 -2z
M1696 -217h-2q-55 -8 -70 4q-12 12 -20 61q-6 48 20 95q141 239 202.5 436.5t61.5 408.5q0 419 -256 797q-30 43 -24 98q9 53 22 64q14 10 68 2q55 -6 86 -51q154 -219 238.5 -470.5t84.5 -494.5q0 -95 -18 -209v-2q-58 -303 -303 -684q-32 -49 -90 -55zM1055 -72
q-204 0 -330 150q-186 219 -186 633q0 270 69 477.5t198 322.5t300 115q146 0 250 -73t104 -183q0 -63 -43.5 -107t-105.5 -44q-69 0 -109.5 41t-40.5 110q0 13 -29.5 28t-62.5 15q-96 0 -164.5 -124.5t-91.5 -342.5q128 86 285 86q189 0 315.5 -148t126.5 -368
q0 -156 -65.5 -291.5t-177.5 -216t-242 -80.5zM1055 143q84 0 151.5 112t67.5 261q0 128 -64.5 215.5t-154.5 87.5q-59 0 -131 -58t-121 -145q10 -216 80 -344.5t172 -128.5zM692 735v-6q0 4 2 4z" />
    <glyph glyph-name="uni2479" unicode="&#xf6c0;" 
d="M373 -221q-59 13 -84 57q-122 197 -196.5 459t-74.5 493q0 81 8.5 155t34.5 182.5t83.5 249t144.5 306.5q25 51 80 66q53 14 71 4q16 -8 31 -59q14 -53 -10 -101q-130 -259 -173.5 -424.5t-43.5 -433.5q0 -451 207 -786q31 -47 20 -101q-8 -49 -27 -65q-16 -11 -71 -2z
M1696 -217h-2q-55 -8 -70 4q-12 12 -20 61q-6 48 20 95q141 239 202.5 436.5t61.5 408.5q0 419 -256 797q-30 43 -24 98q9 53 22 64q14 10 68 2q55 -6 86 -51q154 -219 238.5 -470.5t84.5 -494.5q0 -95 -18 -209v-2q-58 -303 -303 -684q-32 -49 -90 -55zM1055 -72
q-204 0 -330 150q-186 219 -186 633q0 270 69 477.5t198 322.5t300 115q146 0 250 -73t104 -183q0 -63 -43.5 -107t-105.5 -44q-69 0 -109.5 41t-40.5 110q0 13 -29.5 28t-62.5 15q-96 0 -164.5 -124.5t-91.5 -342.5q128 86 285 86q189 0 315.5 -148t126.5 -368
q0 -156 -65.5 -291.5t-177.5 -216t-242 -80.5zM1055 143q84 0 151.5 112t67.5 261q0 128 -64.5 215.5t-154.5 87.5q-59 0 -131 -58t-121 -145q10 -216 80 -344.5t172 -128.5zM692 735v-6q0 4 2 4z" />
    <glyph glyph-name="uni247A" unicode="&#x247a;" 
d="M373 -221q-59 13 -84 57q-122 197 -196.5 459t-74.5 493q0 81 8.5 155t34.5 182.5t83.5 249t144.5 306.5q25 51 80 66q53 14 71 4q16 -8 31 -59q14 -53 -10 -101q-130 -259 -173.5 -424.5t-43.5 -433.5q0 -451 207 -786q31 -47 20 -101q-8 -49 -27 -65q-16 -11 -71 -2z
M1696 -217h-2q-55 -8 -70 4q-12 12 -20 61q-6 48 20 95q141 239 202.5 436.5t61.5 408.5q0 419 -256 797q-30 43 -24 98q9 53 22 64q14 10 68 2q55 -6 86 -51q154 -219 238.5 -470.5t84.5 -494.5q0 -95 -18 -209v-2q-58 -303 -303 -684q-32 -49 -90 -55zM1004 -72
q-70 0 -102 58.5t-32 152.5q0 123 33 285q59 371 381 960h-326q-45 0 -73 -21.5t-52.5 -82t-50.5 -178.5q-15 -72 -86 -72h-57q-39 0 -57.5 21.5t-12.5 60.5l86 444q12 70 82 70h721q67 0 90 -63q1 -6 4 -15l4 -12q14 -41 7 -66q-4 -13 -27 -61q-103 -186 -168 -322
t-121.5 -295.5t-82 -322.5t-25.5 -348q0 -82 -34.5 -137.5t-100.5 -55.5z" />
    <glyph glyph-name="uni247A" unicode="&#xf6c1;" 
d="M373 -221q-59 13 -84 57q-122 197 -196.5 459t-74.5 493q0 81 8.5 155t34.5 182.5t83.5 249t144.5 306.5q25 51 80 66q53 14 71 4q16 -8 31 -59q14 -53 -10 -101q-130 -259 -173.5 -424.5t-43.5 -433.5q0 -451 207 -786q31 -47 20 -101q-8 -49 -27 -65q-16 -11 -71 -2z
M1696 -217h-2q-55 -8 -70 4q-12 12 -20 61q-6 48 20 95q141 239 202.5 436.5t61.5 408.5q0 419 -256 797q-30 43 -24 98q9 53 22 64q14 10 68 2q55 -6 86 -51q154 -219 238.5 -470.5t84.5 -494.5q0 -95 -18 -209v-2q-58 -303 -303 -684q-32 -49 -90 -55zM1004 -72
q-70 0 -102 58.5t-32 152.5q0 123 33 285q59 371 381 960h-326q-45 0 -73 -21.5t-52.5 -82t-50.5 -178.5q-15 -72 -86 -72h-57q-39 0 -57.5 21.5t-12.5 60.5l86 444q12 70 82 70h721q67 0 90 -63q1 -6 4 -15l4 -12q14 -41 7 -66q-4 -13 -27 -61q-103 -186 -168 -322
t-121.5 -295.5t-82 -322.5t-25.5 -348q0 -82 -34.5 -137.5t-100.5 -55.5z" />
    <glyph glyph-name="uni247B" unicode="&#x247b;" 
d="M373 -221q-59 13 -84 57q-122 197 -196.5 459t-74.5 493q0 81 8.5 155t34.5 182.5t83.5 249t144.5 306.5q25 51 80 66q53 14 71 4q16 -8 31 -59q14 -53 -10 -101q-130 -259 -173.5 -424.5t-43.5 -433.5q0 -451 207 -786q31 -47 20 -101q-8 -49 -27 -65q-16 -11 -71 -2z
M1696 -217h-2q-55 -8 -70 4q-12 12 -20 61q-6 48 20 95q141 239 202.5 436.5t61.5 408.5q0 419 -256 797q-30 43 -24 98q9 53 22 64q14 10 68 2q55 -6 86 -51q154 -219 238.5 -470.5t84.5 -494.5q0 -95 -18 -209v-2q-58 -303 -303 -684q-32 -49 -90 -55zM1038 -72
q-213 0 -363.5 128.5t-150.5 308.5q0 235 248 415q-199 172 -199 418q0 178 129 303t314 125q195 0 322.5 -121.5t127.5 -306.5q0 -195 -192 -352q246 -192 246 -481q0 -116 -66.5 -217t-178 -160.5t-237.5 -59.5zM1071 963q70 47 99.5 95t29.5 140q0 93 -54 156t-130 63
q-98 0 -148.5 -56.5t-50.5 -162.5q0 -58 35 -96q28 -31 72 -59t147 -80zM1214 696q-73 64 -167 109h-5q-33 18 -57 29l-14 8q-67 35 -97 51l23 -19q49 -37 49 -49v-18h2q51 3 68 -6q130 -61 198 -105zM1038 139q93 0 165.5 68t72.5 158q0 83 -72 149t-258 148q10 -5 -25 -40
q-4 -5 -14.5 -15t-15.5 -15q-100 -94 -100 -227q0 -101 68.5 -163.5t178.5 -62.5z" />
    <glyph glyph-name="uni247B" unicode="&#xf6c2;" 
d="M373 -221q-59 13 -84 57q-122 197 -196.5 459t-74.5 493q0 81 8.5 155t34.5 182.5t83.5 249t144.5 306.5q25 51 80 66q53 14 71 4q16 -8 31 -59q14 -53 -10 -101q-130 -259 -173.5 -424.5t-43.5 -433.5q0 -451 207 -786q31 -47 20 -101q-8 -49 -27 -65q-16 -11 -71 -2z
M1696 -217h-2q-55 -8 -70 4q-12 12 -20 61q-6 48 20 95q141 239 202.5 436.5t61.5 408.5q0 419 -256 797q-30 43 -24 98q9 53 22 64q14 10 68 2q55 -6 86 -51q154 -219 238.5 -470.5t84.5 -494.5q0 -95 -18 -209v-2q-58 -303 -303 -684q-32 -49 -90 -55zM1038 -72
q-213 0 -363.5 128.5t-150.5 308.5q0 235 248 415q-199 172 -199 418q0 178 129 303t314 125q195 0 322.5 -121.5t127.5 -306.5q0 -195 -192 -352q246 -192 246 -481q0 -116 -66.5 -217t-178 -160.5t-237.5 -59.5zM1071 963q70 47 99.5 95t29.5 140q0 93 -54 156t-130 63
q-98 0 -148.5 -56.5t-50.5 -162.5q0 -58 35 -96q28 -31 72 -59t147 -80zM1214 696q-73 64 -167 109h-5q-33 18 -57 29l-14 8q-67 35 -97 51l23 -19q49 -37 49 -49v-18h2q51 3 68 -6q130 -61 198 -105zM1038 139q93 0 165.5 68t72.5 158q0 83 -72 149t-258 148q10 -5 -25 -40
q-4 -5 -14.5 -15t-15.5 -15q-100 -94 -100 -227q0 -101 68.5 -163.5t178.5 -62.5z" />
    <glyph glyph-name="uni247C" unicode="&#x247c;" 
d="M373 -221q-59 13 -84 57q-122 197 -196.5 459t-74.5 493q0 81 8.5 155t34.5 182.5t83.5 249t144.5 306.5q25 51 80 66q53 14 71 4q16 -8 31 -59q14 -53 -10 -101q-130 -259 -173.5 -424.5t-43.5 -433.5q0 -451 207 -786q31 -47 20 -101q-8 -49 -27 -65q-16 -11 -71 -2z
M1696 -217h-2q-55 -8 -70 4q-12 12 -20 61q-6 48 20 95q141 239 202.5 436.5t61.5 408.5q0 419 -256 797q-30 43 -24 98q9 53 22 64q14 10 68 2q55 -6 86 -51q154 -219 238.5 -470.5t84.5 -494.5q0 -95 -18 -209v-2q-58 -303 -303 -684q-32 -49 -90 -55zM975 -72
q-154 0 -253 67t-99 173q0 67 42 112.5t107 45.5q69 0 109.5 -43.5t40.5 -114.5q0 -9 27.5 -19t58.5 -10q38 0 82 41q70 74 107.5 175.5t49.5 252.5q-134 -104 -293 -104q-197 0 -315.5 158.5t-118.5 420.5q0 146 63 271t172 198.5t238 73.5q257 0 393 -214.5t136 -610.5
q0 -253 -68.5 -451.5t-193 -310t-285.5 -111.5zM999 713q108 0 252 196q-12 236 -80 372t-178 136q-87 0 -147 -95.5t-60 -238.5q0 -157 62.5 -263.5t150.5 -106.5zM776 174v6v-2v-4z" />
    <glyph glyph-name="uni247C" unicode="&#xf6c3;" 
d="M373 -221q-59 13 -84 57q-122 197 -196.5 459t-74.5 493q0 81 8.5 155t34.5 182.5t83.5 249t144.5 306.5q25 51 80 66q53 14 71 4q16 -8 31 -59q14 -53 -10 -101q-130 -259 -173.5 -424.5t-43.5 -433.5q0 -451 207 -786q31 -47 20 -101q-8 -49 -27 -65q-16 -11 -71 -2z
M1696 -217h-2q-55 -8 -70 4q-12 12 -20 61q-6 48 20 95q141 239 202.5 436.5t61.5 408.5q0 419 -256 797q-30 43 -24 98q9 53 22 64q14 10 68 2q55 -6 86 -51q154 -219 238.5 -470.5t84.5 -494.5q0 -95 -18 -209v-2q-58 -303 -303 -684q-32 -49 -90 -55zM975 -72
q-154 0 -253 67t-99 173q0 67 42 112.5t107 45.5q69 0 109.5 -43.5t40.5 -114.5q0 -9 27.5 -19t58.5 -10q38 0 82 41q70 74 107.5 175.5t49.5 252.5q-134 -104 -293 -104q-197 0 -315.5 158.5t-118.5 420.5q0 146 63 271t172 198.5t238 73.5q257 0 393 -214.5t136 -610.5
q0 -253 -68.5 -451.5t-193 -310t-285.5 -111.5zM999 713q108 0 252 196q-12 236 -80 372t-178 136q-87 0 -147 -95.5t-60 -238.5q0 -157 62.5 -263.5t150.5 -106.5zM776 174v6v-2v-4z" />
    <glyph glyph-name="uni247D" unicode="&#x247d;" 
d="M373 -221q-59 13 -84 57q-122 197 -196.5 459t-74.5 493q0 81 8.5 155t34.5 182.5t83.5 249t144.5 306.5q25 51 80 66q53 14 71 4q16 -8 31 -59q14 -53 -10 -101q-130 -259 -173.5 -424.5t-43.5 -433.5q0 -451 207 -786q31 -47 20 -101q-8 -49 -27 -65q-16 -11 -71 -2z
M1696 -217h-2q-55 -8 -70 4q-12 12 -20 61q-6 48 20 95q141 239 202.5 436.5t61.5 408.5q0 419 -256 797q-30 43 -24 98q9 53 22 64q14 10 68 2q55 -6 86 -51q154 -219 238.5 -470.5t84.5 -494.5q0 -95 -18 -209v-2q-58 -303 -303 -684q-32 -49 -90 -55zM975 -47h-434
q-76 0 -76 67v13q0 54 37 94q39 36 102 39q14 0 19.5 2.5t6 5t-1 13t-1.5 18.5v1001l-1 16q-1 17 -1.5 29t0.5 15h-97q-75 0 -75 65v12q0 53 28 91q27 32 80 53q61 25 121 92q38 47 94 47h35q37 0 57.5 -20.5t20.5 -57.5v-1343q0 -7 -1 -18q-1 -17 7 -20t58 -3h12
q42 1 65 -19t23 -57v-57q0 -37 -20.5 -57.5t-57.5 -20.5zM1380 -72q-109 0 -187 103.5t-117.5 294t-39.5 450.5q0 252 40 443t118.5 299t185.5 108t185.5 -109t118.5 -300t40 -441q0 -243 -41.5 -435t-120.5 -302.5t-182 -110.5zM735 1370v47l-28 -22q15 -9 28 -25z
M1374 141q84 150 84 635q0 463 -72 610l-10 19q-1 -3 -12 -25q-61 -131 -61 -604q0 -261 22 -435t49 -200z" />
    <glyph glyph-name="uni247D" unicode="&#xf6c4;" 
d="M373 -221q-59 13 -84 57q-122 197 -196.5 459t-74.5 493q0 81 8.5 155t34.5 182.5t83.5 249t144.5 306.5q25 51 80 66q53 14 71 4q16 -8 31 -59q14 -53 -10 -101q-130 -259 -173.5 -424.5t-43.5 -433.5q0 -451 207 -786q31 -47 20 -101q-8 -49 -27 -65q-16 -11 -71 -2z
M1696 -217h-2q-55 -8 -70 4q-12 12 -20 61q-6 48 20 95q141 239 202.5 436.5t61.5 408.5q0 419 -256 797q-30 43 -24 98q9 53 22 64q14 10 68 2q55 -6 86 -51q154 -219 238.5 -470.5t84.5 -494.5q0 -95 -18 -209v-2q-58 -303 -303 -684q-32 -49 -90 -55zM975 -47h-434
q-76 0 -76 67v13q0 54 37 94q39 36 102 39q14 0 19.5 2.5t6 5t-1 13t-1.5 18.5v1001l-1 16q-1 17 -1.5 29t0.5 15h-97q-75 0 -75 65v12q0 53 28 91q27 32 80 53q61 25 121 92q38 47 94 47h35q37 0 57.5 -20.5t20.5 -57.5v-1343q0 -7 -1 -18q-1 -17 7 -20t58 -3h12
q42 1 65 -19t23 -57v-57q0 -37 -20.5 -57.5t-57.5 -20.5zM1380 -72q-109 0 -187 103.5t-117.5 294t-39.5 450.5q0 252 40 443t118.5 299t185.5 108t185.5 -109t118.5 -300t40 -441q0 -243 -41.5 -435t-120.5 -302.5t-182 -110.5zM735 1370v47l-28 -22q15 -9 28 -25z
M1374 141q84 150 84 635q0 463 -72 610l-10 19q-1 -3 -12 -25q-61 -131 -61 -604q0 -261 22 -435t49 -200z" />
    <glyph glyph-name="uni2500" unicode="&#x2500;" 
d="M2089 664h-2048q-37 0 -57.5 19.5t-20.5 55.5v78q0 37 20.5 57.5t57.5 20.5h2048q37 0 57.5 -20.5t20.5 -57.5v-78q0 -36 -20.5 -55.5t-57.5 -19.5z" />
    <glyph glyph-name="uni2502" unicode="&#x2502;" 
d="M1102 -326h-78q-37 0 -56.5 20.5t-19.5 57.5v2048q0 37 19.5 57.5t56.5 20.5h78q37 0 57.5 -20.5t20.5 -57.5v-2048q0 -37 -20.5 -57.5t-57.5 -20.5z" />
    <glyph glyph-name="uni250C" unicode="&#x250c;" 
d="M1102 -326h-78q-37 0 -56.5 20.5t-19.5 57.5v1065q0 37 19.5 57.5t56.5 20.5h1065q37 0 57.5 -20.5t20.5 -57.5v-78q0 -36 -20.5 -55.5t-57.5 -19.5h-909v-912q0 -37 -20.5 -57.5t-57.5 -20.5z" />
    <glyph glyph-name="uni2510" unicode="&#x2510;" 
d="M1102 -326h-78q-37 0 -56.5 20.5t-19.5 57.5v912h-907q-37 0 -57.5 19.5t-20.5 55.5v78q0 37 20.5 57.5t57.5 20.5h1061q37 0 57.5 -20.5t20.5 -57.5v-1065q0 -37 -20.5 -57.5t-57.5 -20.5z" />
    <glyph glyph-name="uni2514" unicode="&#x2514;" 
d="M2089 664h-1065q-76 0 -76 75v1061q0 37 19.5 57.5t56.5 20.5h78q37 0 57.5 -20.5t20.5 -57.5v-905h909q37 0 57.5 -20.5t20.5 -57.5v-78q0 -36 -20.5 -55.5t-57.5 -19.5z" />
    <glyph glyph-name="uni2518" unicode="&#x2518;" 
d="M1102 664h-1061q-37 0 -57.5 19.5t-20.5 55.5v78q0 37 20.5 57.5t57.5 20.5h907v905q0 37 19.5 57.5t56.5 20.5h78q37 0 57.5 -20.5t20.5 -57.5v-1061q0 -36 -20.5 -55.5t-57.5 -19.5z" />
    <glyph glyph-name="uni251C" unicode="&#x251c;" 
d="M1102 -326h-78q-37 0 -56.5 20.5t-19.5 57.5v2048q0 37 19.5 57.5t56.5 20.5h78q37 0 57.5 -20.5t20.5 -57.5v-905h909q37 0 57.5 -20.5t20.5 -57.5v-78q0 -36 -20.5 -55.5t-57.5 -19.5h-909v-912q0 -37 -20.5 -57.5t-57.5 -20.5z" />
    <glyph glyph-name="uni2524" unicode="&#x2524;" 
d="M1102 -326h-78q-37 0 -56.5 20.5t-19.5 57.5v912h-907q-37 0 -57.5 19.5t-20.5 55.5v78q0 37 20.5 57.5t57.5 20.5h907v905q0 37 19.5 57.5t56.5 20.5h78q37 0 57.5 -20.5t20.5 -57.5v-2048q0 -37 -20.5 -57.5t-57.5 -20.5z" />
    <glyph glyph-name="uni252C" unicode="&#x252c;" 
d="M1102 -326h-78q-37 0 -56.5 20.5t-19.5 57.5v912h-907q-37 0 -57.5 19.5t-20.5 55.5v78q0 37 20.5 57.5t57.5 20.5h2048q37 0 57.5 -20.5t20.5 -57.5v-78q0 -36 -20.5 -55.5t-57.5 -19.5h-909v-912q0 -37 -20.5 -57.5t-57.5 -20.5z" />
    <glyph glyph-name="uni2534" unicode="&#x2534;" 
d="M2089 664h-2048q-37 0 -57.5 19.5t-20.5 55.5v78q0 37 20.5 57.5t57.5 20.5h907v905q0 37 19.5 57.5t56.5 20.5h78q37 0 57.5 -20.5t20.5 -57.5v-905h909q37 0 57.5 -20.5t20.5 -57.5v-78q0 -36 -20.5 -55.5t-57.5 -19.5z" />
    <glyph glyph-name="uni253C" unicode="&#x253c;" 
d="M1102 -326h-78q-37 0 -56.5 20.5t-19.5 57.5v912h-907q-37 0 -57.5 19.5t-20.5 55.5v78q0 37 20.5 57.5t57.5 20.5h907v905q0 37 19.5 57.5t56.5 20.5h78q37 0 57.5 -20.5t20.5 -57.5v-905h909q37 0 57.5 -20.5t20.5 -57.5v-78q0 -36 -20.5 -55.5t-57.5 -19.5h-909v-912
q0 -37 -20.5 -57.5t-57.5 -20.5z" />
    <glyph glyph-name="uni2550.old" unicode="&#x2550;" 
d="M2089 999h-2048q-37 0 -57.5 19.5t-20.5 56.5v78q0 37 20.5 57.5t57.5 20.5h2048q37 0 57.5 -20.5t20.5 -57.5v-78q0 -37 -20.5 -56.5t-57.5 -19.5zM2089 328h-2048q-37 0 -57.5 19.5t-20.5 55.5v78q0 37 20.5 57.5t57.5 20.5h2048q37 0 57.5 -20.5t20.5 -57.5v-78
q0 -36 -20.5 -55.5t-57.5 -19.5z" />
    <glyph glyph-name="uni255E.old" unicode="&#x255e;" 
d="M1102 -326h-78q-37 0 -56.5 20.5t-19.5 57.5v2048q0 37 19.5 57.5t56.5 20.5h78q37 0 57.5 -20.5t20.5 -57.5v-569h909q37 0 57.5 -20.5t20.5 -57.5v-78q0 -37 -20.5 -56.5t-57.5 -19.5h-909v-440h909q37 0 57.5 -20.5t20.5 -57.5v-78q0 -36 -20.5 -55.5t-57.5 -19.5
h-909v-576q0 -37 -20.5 -57.5t-57.5 -20.5z" />
    <glyph glyph-name="uni2561.old" unicode="&#x2561;" 
d="M1102 -326h-78q-37 0 -56.5 20.5t-19.5 57.5v576h-907q-37 0 -57.5 19.5t-20.5 55.5v78q0 37 20.5 57.5t57.5 20.5h907v440h-907q-37 0 -57.5 19.5t-20.5 56.5v78q0 37 20.5 57.5t57.5 20.5h907v569q0 37 19.5 57.5t56.5 20.5h78q37 0 57.5 -20.5t20.5 -57.5v-2048
q0 -37 -20.5 -57.5t-57.5 -20.5z" />
    <glyph glyph-name="uni256A.old" unicode="&#x256a;" 
d="M1102 -326h-78q-37 0 -56.5 20.5t-19.5 57.5v576h-907q-37 0 -57.5 19.5t-20.5 55.5v78q0 37 20.5 57.5t57.5 20.5h907v440h-907q-37 0 -57.5 19.5t-20.5 56.5v78q0 37 20.5 57.5t57.5 20.5h907v569q0 37 19.5 57.5t56.5 20.5h78q37 0 57.5 -20.5t20.5 -57.5v-569h909
q37 0 57.5 -20.5t20.5 -57.5v-78q0 -37 -20.5 -56.5t-57.5 -19.5h-909v-440h909q37 0 57.5 -20.5t20.5 -57.5v-78q0 -36 -20.5 -55.5t-57.5 -19.5h-909v-576q0 -37 -20.5 -57.5t-57.5 -20.5z" />
    <glyph glyph-name="uni256D" unicode="&#x256d;" 
d="M1047 -326h-21q-78 0 -78 76q-1 235 89 447t243 365t365 243t446 90q76 -3 76 -80v-20q0 -53 -39 -95q-38 -35 -94 -38q-227 -14 -417.5 -130t-306.5 -307t-130 -418q-3 -55 -39 -94q-42 -39 -94 -39z" />
    <glyph glyph-name="uni256E" unicode="&#x256e;" 
d="M1100 -326h-21q-52 0 -94 39q-36 39 -39 94q-11 170 -81.5 323t-183 266t-264.5 184t-321 82q-56 3 -94 38q-39 42 -39 95v20q0 37 19.5 57.5t56.5 20.5q155 0 303 -40.5t273 -114.5t230 -179.5t178.5 -231t114 -274t40.5 -303.5q0 -76 -78 -76z" />
    <glyph glyph-name="uni256F" unicode="&#x256f;" 
d="M39 664q-37 0 -56.5 20t-19.5 57v78q0 73 82 76q183 0 349.5 72t287.5 193t192.5 288t71.5 350q3 80 76 80h78q37 0 57.5 -19.5t20.5 -56.5q0 -155 -40.5 -302.5t-114 -272.5t-179 -230.5t-230.5 -178.5t-273 -113.5t-302 -40.5z" />
    <glyph glyph-name="uni2570" unicode="&#x2570;" 
d="M2091 664q-155 0 -303.5 40.5t-274 113.5t-231 178.5t-179.5 230.5t-114.5 272.5t-40.5 302.5q0 37 20.5 56.5t57.5 19.5h21q52 0 94 -39q36 -39 39 -94q11 -169 81.5 -321t183.5 -264.5t266 -183t323 -81.5q55 -3 94 -39q39 -42 39 -94v-21q0 -77 -76 -77z" />
    <glyph glyph-name="uni2571" unicode="&#x2571;" 
d="M78 -326h-37q-37 0 -57.5 20.5t-20.5 57.5v39q0 55 41 96l1950 1950q41 41 96 41h39q37 0 57.5 -20.5t20.5 -57.5v-37q0 -55 -41 -96l-1952 -1952q-41 -41 -96 -41z" />
    <glyph glyph-name="uni2572" unicode="&#x2572;" 
d="M2089 -326h-39q-55 0 -96 41l-1950 1952q-41 41 -41 96v37q0 37 20.5 57.5t57.5 20.5h37q55 0 96 -41l1952 -1950q41 -41 41 -96v-39q0 -37 -20.5 -57.5t-57.5 -20.5z" />
    <glyph glyph-name="uni2573" unicode="&#x2573;" 
d="M78 -326h-37q-37 0 -57.5 20.5t-20.5 57.5v39q0 55 41 96l889 891l-889 889q-41 41 -41 96v37q0 37 20.5 57.5t57.5 20.5h37q55 0 96 -41l889 -889l891 889q41 41 96 41h39q37 0 57.5 -20.5t20.5 -57.5v-37q0 -55 -41 -96l-893 -891l893 -889q41 -41 41 -96v-39
q0 -37 -20.5 -57.5t-57.5 -20.5h-39q-55 0 -96 41l-889 893l-891 -893q-41 -41 -96 -41z" />
    <glyph glyph-name="uni2581" unicode="&#x2581;" 
d="M2089 -326h-2048q-37 0 -57.5 20.5t-20.5 57.5v225q0 37 20.5 57.5t57.5 20.5h2048q37 0 57.5 -20.5t20.5 -57.5v-225q0 -37 -20.5 -57.5t-57.5 -20.5zM119 -100v-72h1894v72h-1894z" />
    <glyph glyph-name="uni2582" unicode="&#x2582;" 
d="M2089 -326h-2048q-37 0 -57.5 20.5t-20.5 57.5v481q0 37 20.5 57.5t57.5 20.5h2048q37 0 57.5 -20.5t20.5 -57.5v-481q0 -37 -20.5 -57.5t-57.5 -20.5zM119 158v-330h1894v330h-1894z" />
    <glyph glyph-name="uni2583" unicode="&#x2583;" 
d="M2089 -326h-2048q-37 0 -57.5 20.5t-20.5 57.5v737q0 37 20.5 57.5t57.5 20.5h2048q37 0 57.5 -20.5t20.5 -57.5v-737q0 -37 -20.5 -57.5t-57.5 -20.5zM119 414v-586h1894v586h-1894z" />
    <glyph glyph-name="dnblock" unicode="&#x2584;" 
d="M2089 -326h-2048q-37 0 -57.5 20.5t-20.5 57.5v993q0 37 20.5 57.5t57.5 20.5h2048q37 0 57.5 -20.5t20.5 -57.5v-993q0 -37 -20.5 -57.5t-57.5 -20.5zM119 670v-842h1894v842h-1894z" />
    <glyph glyph-name="uni2585" unicode="&#x2585;" 
d="M2089 -326h-2048q-37 0 -57.5 20.5t-20.5 57.5v1249q0 37 20.5 57.5t57.5 20.5h2048q37 0 57.5 -20.5t20.5 -57.5v-1249q0 -37 -20.5 -57.5t-57.5 -20.5zM119 926v-1098h1894v1098h-1894z" />
    </font>
</defs>
</svg>
